<?xml version="1.0" standalone="no"?>
<!DOCTYPE svg PUBLIC "-//W3C//DTD SVG 1.1//EN" "http://www.w3.org/Graphics/SVG/1.1/DTD/svg11.dtd" >
<svg xmlns="http://www.w3.org/2000/svg">
<metadata></metadata>
<defs>
<font id="DINLight" horiz-adv-x="1052" >
<font-face units-per-em="2048" ascent="1638" descent="-410" />
<missing-glyph horiz-adv-x="522" />
<glyph horiz-adv-x="0" />
<glyph horiz-adv-x="2048" />
<glyph unicode="&#xd;" horiz-adv-x="522" />
<glyph unicode=" "  horiz-adv-x="522" />
<glyph unicode="&#x09;" horiz-adv-x="522" />
<glyph unicode="&#xa0;" horiz-adv-x="522" />
<glyph unicode="!" horiz-adv-x="622" d="M272 0h138v137h-138v-137zM285 1458l6 -1065h100l6 1065h-112z" />
<glyph unicode="&#x22;" horiz-adv-x="835" d="M195 1139h129v319h-129v-319zM512 1139h129v319h-129v-319z" />
<glyph unicode="#" horiz-adv-x="1308" d="M172 492h197l-78 -492h104l76 492h360l-79 -492h104l78 492h211v90h-197l51 313h205v92h-192l73 471h-102l-74 -471h-358l76 471h-107l-74 -471h-215v-92h203l-51 -313h-211v-90zM485 582l52 313h358l-51 -313h-359z" />
<glyph unicode="$" horiz-adv-x="1202" d="M104 180q94 -94 194.5 -140t244.5 -52v-221h92v223q209 10 327.5 117.5t118.5 283.5q0 210 -174 315q-47 29 -104.5 41.5t-108.5 22.5l-59 10v594q104 -8 173 -44t128 -89l72 72q-86 74 -171 111.5t-202 43.5v183h-92v-183q-190 -12 -299 -117.5t-109 -277.5t115 -270 q41 -35 110.5 -65.5t149.5 -41.5l33 -4v-604q-156 6 -276 96q-42 31 -85 74zM244 1075q0 129 78.5 209t220.5 90v-579q-301 42 -299 280zM635 88v588q37 -6 71 -10q265 -32 265 -280q0 -134 -90 -211t-246 -87z" />
<glyph unicode="%" horiz-adv-x="1695" d="M141 979q0 -121 75 -196.5t195 -75.5t194.5 75.5t74.5 196.5v219q0 123 -75 199t-194.5 76t-194.5 -76t-75 -199v-219zM231 983v211q0 201 181 201q178 0 178 -201v-211q0 -199 -179.5 -199t-179.5 199zM463 0h92l680 1458h-92zM1016 260q0 -123 74.5 -198.5t194.5 -75.5 t194.5 75.5t74.5 198.5v219q0 123 -74.5 199t-194.5 76t-194.5 -76t-74.5 -199v-219zM1106 264v211q0 201 180 201q178 0 178 -201v-211q0 -201 -178 -201q-180 0 -180 201z" />
<glyph unicode="&#x26;" horiz-adv-x="1527" d="M172 400q0 -89 33 -165.5t93 -132.5q124 -114 327 -114q152 0 293 72q70 34 155 112l141 -172h142l-209 254q127 156 127 444h-109q0 -197 -45 -290q-16 -35 -41 -72l-417 506q16 10 42.5 28.5t45.5 30.5q86 56 137 121t51 141t-23.5 129.5t-63.5 93.5q-86 84 -210 84 q-123 0 -210 -84q-87 -83 -87 -206q0 -122 104 -252q29 -37 58 -72q-159 -104 -219 -169.5t-87.5 -131.5t-27.5 -155zM283 410q0 168 184 301q51 37 102 71l443 -534q-111 -98 -206 -130t-177 -32t-144.5 23.5t-107.5 66.5q-94 90 -94 234zM455 1184q0 82 53 135t133 53 t134 -55t54 -133t-45 -125t-74.5 -67.5t-43 -30t-35 -23.5t-33.5 -23q-120 142 -137 215q-6 25 -6 54z" />
<glyph unicode="'" horiz-adv-x="518" d="M195 1139h129v319h-129v-319z" />
<glyph unicode="(" horiz-adv-x="581" d="M199 162q0 -168 95 -272q32 -35 79 -83l71 72q-35 35 -64 65q-77 80 -77 230v1110q0 151 78 230q29 30 63 65l-71 72q-47 -47 -79 -82q-74 -81 -88 -176q-7 -47 -7 -97v-1134z" />
<glyph unicode=")" horiz-adv-x="581" d="M133 -117l76 -76q47 47 78.5 82t56.5 82q39 68 39 191v1134q0 123 -32 180.5t-63.5 92.5t-78.5 82l-76 -76q35 -35 63.5 -64.5t45.5 -65.5q30 -61 30 -161v-1110q0 -100 -23 -148.5t-52 -78t-64 -64.5z" />
<glyph unicode="*" horiz-adv-x="956" d="M147 975l46 -78l245 150l-6 -289h92l-6 289l246 -150l45 78l-252 139l252 139l-45 78l-246 -149l6 288h-92l6 -288l-245 149l-46 -78l252 -139z" />
<glyph unicode="+" d="M109 492h370v-371h96v371h369v96h-369v368h-96v-368h-370v-96z" />
<glyph unicode="," horiz-adv-x="528" d="M195 139v-418l139 140v278h-139z" />
<glyph unicode="-" horiz-adv-x="872" d="M168 492h537v96h-537v-96z" />
<glyph unicode="." horiz-adv-x="540" d="M195 0h151v152h-151v-152z" />
<glyph unicode="/" horiz-adv-x="692" d="M0 -152h109l583 1762h-108z" />
<glyph unicode="0" d="M143 377q0 -169 107 -279q106 -110 276 -110q172 0 276 110q107 112 107 279v704q0 169 -107 280q-105 109 -276 109q-169 0 -276 -109t-107 -280v-704zM248 387v684q0 135 70 218q76 89 208 89t208 -89q71 -83 71 -218v-684q0 -135 -71 -218q-76 -89 -208 -89t-208 89 q-70 83 -70 218z" />
<glyph unicode="1" d="M272 1106l265 233v-1339h104v1458h-104l-265 -227v-125z" />
<glyph unicode="2" d="M147 0h773v92h-648l547 715q55 72 78 135.5t23 147t-28 154.5t-78 121q-105 105 -279 105q-177 0 -283 -110q-102 -106 -102 -273h104q0 144 83 223q72 68 201.5 68t203 -79.5t73.5 -211.5q0 -122 -82 -227l-586 -768v-92z" />
<glyph unicode="3" d="M86 354q17 -273 256 -346q74 -22 161 -22t162.5 26.5t130.5 77.5q119 109 119 299q0 287 -235 365q207 88 207 331q0 171 -108 281q-105 107 -272 107t-276.5 -93.5t-126.5 -265.5h105q14 123 88 194.5t203 71.5q121 0 200 -76q82 -77 82 -219q0 -292 -288 -292h-25v-93 h25q317 0 317 -311q0 -143 -89 -228q-87 -83 -220 -83q-123 0 -207 64q-91 68 -105 212h-104z" />
<glyph unicode="4" d="M88 240h578v-240h104v240h195v92h-195v463h-104v-463h-467l536 1126h-110l-537 -1126v-92z" />
<glyph unicode="5" d="M152 322q12 -152 98 -238q94 -98 275 -98t286 104q100 100 110 282q3 52 3 105q0 481 -365 481q-182 0 -276 -108v516h608v92h-701v-745h93q23 74 93 113.5t165.5 39.5t148.5 -34.5t82 -91.5q47 -91 47 -263q0 -170 -37 -254q-41 -89 -139 -125q-53 -20 -113 -20 q-129 0 -193.5 63.5t-80.5 180.5h-104z" />
<glyph unicode="6" d="M145 397q0 -182 102 -293q106 -116 285 -116t285 124q101 119 101 299q0 87 -26 160.5t-74 128.5q-102 119 -277 119q-96 0 -170 -35l336 674h-105l-375 -756q-82 -168 -82 -305zM250 403q0 147 75.5 235.5t204.5 88.5q201 0 264 -199q19 -59 19 -125q0 -147 -77 -235 t-206 -88t-204.5 88t-75.5 235z" />
<glyph unicode="7" d="M176 1137h105v229h553l-517 -1366h107l516 1366v92h-764v-321z" />
<glyph unicode="8" d="M111 412.5q0 -107.5 31.5 -181t87.5 -127.5q120 -116 296 -116q177 0 296 116q120 115 120 289q0 127 -62.5 218t-166.5 147q199 106 198 332q0 161 -107 270q-108 110 -278 110q-169 0 -277 -110t-108 -270q0 -223 201 -332q-104 -55 -167.5 -146.5t-63.5 -199zM215 393 q0 135 89 224q92 92 222 92q131 0 223 -92q89 -89 89 -224t-89 -224t-223 -89q-133 0 -222 89t-89 224zM246 1090q0 123 78 206q76 82 202 82q125 0 203 -82t78 -206q0 -128 -78 -208q-79 -81 -203 -81q-125 0 -202 81q-78 81 -78 208z" />
<glyph unicode="9" d="M135 1047q0 -178 97 -289q104 -119 278 -119q98 0 172 35l-336 -674h105l374 756q82 168 82 313q0 175 -101 285q-106 116 -286 116q-177 0 -284 -124q-101 -117 -101 -299zM240 1058q0 144 75.5 232t204.5 88t206 -88t77 -235t-77 -235.5t-206 -88.5q-133 0 -210 96 q-70 87 -70 231z" />
<glyph unicode=":" horiz-adv-x="598" d="M252 0h151v152h-151v-152zM252 639h151v152h-151v-152z" />
<glyph unicode=";" horiz-adv-x="598" d="M252 639h151v152h-151v-152zM256 139v-418l139 140v278h-139z" />
<glyph unicode="&#x3c;" horiz-adv-x="2103" d="M117 539l827 -828h141l-776 776h1678v103h-1678l776 776h-141z" />
<glyph unicode="=" d="M109 334h835v96h-835v-96zM109 647h835v96h-835v-96z" />
<glyph unicode="&#x3e;" horiz-adv-x="2103" d="M117 487h1677l-776 -776h141l828 828l-828 827h-141l776 -776h-1677v-103z" />
<glyph unicode="?" horiz-adv-x="999" d="M164 1110h104q0 112 71 188q74 80 191 80q110 0 188 -76q75 -74 75 -192q0 -59 -19.5 -100t-50.5 -88l-172 -254q-31 -45 -45 -85t-14 -100v-92h104v96q0 74 37 123l174 256q41 59 65.5 115.5t24.5 130.5t-27.5 140.5t-77.5 114.5q-106 103 -262 103q-161 0 -265 -106 q-101 -103 -101 -254zM475 0h137v137h-137v-137z" />
<glyph unicode="@" horiz-adv-x="1427" d="M158 322q0 -135 25.5 -187.5t56 -84.5t77.5 -64l72 71q-108 75 -122 175q-5 36 -5 90v722q0 90 18.5 143.5t64.5 99.5q87 87 233 87h270q147 0 233 -86q47 -47 65.5 -101t18.5 -143v-182q-102 139 -286 139q-92 0 -169 -35.5t-121 -99.5q-81 -116 -81 -372 q0 -139 20.5 -225.5t67.5 -149.5q102 -133 285 -133q98 0 165.5 32.5t118.5 102.5v-121h105v1038q0 195 -115 310q-110 110 -289 110h-307q-182 0 -289 -110q-112 -116 -112 -310v-716zM612 494q0 189 38 265.5t92.5 113t146.5 36.5q165 0 231 -133q45 -91 45 -282 q0 -192 -37.5 -267t-92 -112t-146.5 -37q-164 0 -231 133q-46 93 -46 283z" />
<glyph unicode="A" horiz-adv-x="1232" d="M31 0h119l126 354h680l127 -354h119l-536 1458h-99zM311 453l305 858l306 -858h-611z" />
<glyph unicode="B" horiz-adv-x="1374" d="M225 0h553q197 0 310 102q118 105 118 310q0 112 -65.5 204.5t-184.5 133.5q106 35 167 124t61 191t-32 173t-88 120q-114 100 -302 100h-537v-1458zM336 98v598h430q150 0 240 -79t90 -220t-90.5 -220t-239.5 -79h-430zM336 795v565h414q224 0 298 -154q25 -53 25 -129 q0 -143 -95 -216q-85 -66 -228 -66h-414z" />
<glyph unicode="C" horiz-adv-x="1318" d="M168 729q0 -283 16 -361q28 -140 109 -221q159 -159 375 -159q193 0 326 114t169 312h-108q-33 -152 -136.5 -240t-250.5 -88q-166 0 -277 113q-74 74 -95 187q-17 93 -17 343t14 327t36.5 121t69.5 91t119 75.5t150 28.5q147 0 248.5 -88t134.5 -240h112 q-36 197 -167 312q-132 114 -328 114q-216 0 -365 -149q-91 -91 -117 -223q-18 -88 -18 -369z" />
<glyph unicode="D" horiz-adv-x="1388" d="M225 0h490q231 0 364 133q137 137 141 458q1 85 1 159q0 220 -15 300q-33 182 -127 275q-133 133 -364 133h-490v-1458zM336 98v1262h352q205 0 313 -113q104 -109 108 -367q1 -69 1 -130q0 -194 -10 -278q-22 -180 -92 -253.5t-151 -97t-169 -23.5h-352z" />
<glyph unicode="E" horiz-adv-x="1224" d="M225 0h885v98h-774v588h659v98h-659v576h774v98h-885v-1458z" />
<glyph unicode="F" horiz-adv-x="1179" d="M225 0h111v662h659v98h-659v600h774v98h-885v-1458z" />
<glyph unicode="G" horiz-adv-x="1333" d="M168 729q0 -283 16 -361q28 -140 109 -221q159 -159 375 -159q111 0 211 44t169 119t95 158.5t26 198.5v237h-501v-98h391v-131q0 -177 -88 -289q-115 -141 -303 -141q-166 0 -277 113q-74 74 -95 187q-17 93 -17 343t14 327t36.5 121t69.5 91t119 75.5t150 28.5 q147 0 250.5 -88t136.5 -240h110q-32 193 -169.5 309.5t-327.5 116.5q-216 0 -365 -149q-91 -91 -117 -223q-18 -88 -18 -369z" />
<glyph unicode="H" horiz-adv-x="1431" d="M225 0h111v686h760v-686h110v1458h-110v-674h-760v674h-111v-1458z" />
<glyph unicode="I" horiz-adv-x="561" d="M225 0h111v1458h-111v-1458z" />
<glyph unicode="J" horiz-adv-x="1019" d="M61 113q125 -125 320 -125q199 0 316.5 121.5t117.5 320.5v1028h-110v-1005q0 -176 -83 -271.5t-241 -95.5q-96 0 -149.5 30.5t-94.5 71.5z" />
<glyph unicode="K" horiz-adv-x="1320" d="M225 0h111v395l348 422l469 -817h131l-526 901l450 557h-133l-739 -911v911h-111v-1458z" />
<glyph unicode="L" horiz-adv-x="1171" d="M225 0h885v98h-774v1360h-111v-1458z" />
<glyph unicode="M" horiz-adv-x="1675" d="M225 0h111v1202l450 -997h111l442 997v-1202h111v1458h-111l-495 -1124l-508 1124h-111v-1458z" />
<glyph unicode="N" horiz-adv-x="1513" d="M225 0h111v1268l842 -1268h110v1458h-110v-1263l-842 1263h-111v-1458z" />
<glyph unicode="O" horiz-adv-x="1335" d="M168 729q0 -283 16 -361q28 -140 109 -221q159 -159 375 -159q215 0 364 149q93 93 118 221q17 89 17 371q0 280 -15 358q-27 141 -110 224q-159 159 -374 159q-216 0 -365 -149q-91 -91 -117 -223q-18 -88 -18 -369zM279 729q0 250 14 327t36.5 121t69.5 91t119 75.5 t150 28.5q164 0 276 -112q74 -74 96 -188q17 -92 17 -343q0 -252 -14.5 -327.5t-37 -119.5t-69.5 -91t-119 -76t-149 -29q-166 0 -277 113q-74 74 -95 187q-17 93 -17 343z" />
<glyph unicode="P" horiz-adv-x="1292" d="M225 0h111v618h424q195 0 314 110q126 116 126 310q0 195 -126 310q-120 110 -314 110h-535v-1458zM336 717v643h412q239 0 316 -180q26 -60 26 -142q0 -156 -97 -242q-89 -79 -245 -79h-412z" />
<glyph unicode="Q" horiz-adv-x="1333" d="M168 729q0 -283 16 -361q28 -140 109 -221q159 -159 375 -159q182 0 321 110l172 -172l74 74l-172 172q70 81 90 211q14 92 14 280.5t-2 277.5t-15 157q-25 130 -108 213q-159 159 -374 159q-216 0 -365 -149q-91 -91 -117 -223q-18 -88 -18 -369zM279 729q0 250 14 327 t36.5 121t69.5 91t119 75.5t150 28.5q164 0 276 -112q74 -74 96 -188q17 -92 17 -266q0 -295 -13.5 -396.5t-56.5 -161.5l-203 203l-73 -74l204 -205q-109 -86 -247 -86q-166 0 -277 113q-74 74 -95 187q-17 93 -17 343z" />
<glyph unicode="R" horiz-adv-x="1345" d="M225 0h111v672h401l348 -672h129l-352 674q154 27 245 128t91 265q0 187 -120 291q-115 100 -298 100h-555v-1458zM336 770v590h430q227 0 298 -164q23 -55 23 -131q0 -146 -90 -223q-84 -72 -231 -72h-430z" />
<glyph unicode="S" horiz-adv-x="1202" d="M104 180q150 -150 338 -181q66 -11 148 -11q229 0 360 108.5t131 303.5t-174 308q-59 38 -213 62l-157 25q-138 23 -216 88t-78 196q0 134 90 216q89 81 249 81q122 0 185 -28q93 -39 169 -107l72 72q-94 82 -189.5 119.5t-230.5 37.5q-211 0 -332 -107.5t-121 -285.5 t115 -274q94 -82 260 -107l170 -26q125 -17 172 -50q18 -12 39 -28q80 -72 80 -210t-100.5 -217t-274.5 -79q-136 0 -204 28q-114 48 -210 144z" />
<glyph unicode="T" horiz-adv-x="1103" d="M61 1360h435v-1360h110v1360h436v98h-981v-98z" />
<glyph unicode="U" horiz-adv-x="1409" d="M205 473q0 -213 141 -349q139 -136 359 -136q219 0 359 136t140 349v985h-110v-971q0 -181 -107 -291q-106 -110 -282 -110q-177 0 -283 110q-107 110 -107 291v971h-110v-985z" />
<glyph unicode="V" horiz-adv-x="1093" d="M20 1458l480 -1458h94l479 1458h-117l-409 -1263l-410 1263h-117z" />
<glyph unicode="W" horiz-adv-x="1724" d="M41 1458l365 -1458h112l344 1270l344 -1270h113l364 1458h-116l-307 -1268l-340 1268h-115l-340 -1268l-307 1268h-117z" />
<glyph unicode="X" horiz-adv-x="1089" d="M37 0h125l381 649l381 -649h129l-451 748l418 710h-127l-350 -612l-348 612h-129l417 -710z" />
<glyph unicode="Y" horiz-adv-x="1011" d="M20 1458l431 -854v-604h110v604l430 854h-119l-362 -737l-371 737h-119z" />
<glyph unicode="Z" horiz-adv-x="1144" d="M129 0h887v98h-774l774 1262v98h-856v-98h737l-768 -1243v-117z" />
<glyph unicode="[" horiz-adv-x="593" d="M199 -152h303v93h-199v1577h199v92h-303v-1762z" />
<glyph unicode="\" horiz-adv-x="692" d="M0 1610l584 -1762h108l-583 1762h-109z" />
<glyph unicode="]" horiz-adv-x="593" d="M92 -66v-86h303v1762h-303v-86h205v-1590h-205z" />
<glyph unicode="^" d="M156 864h104l266 496l267 -496h104l-324 606h-94z" />
<glyph unicode="_" d="M0 -250v-78h1053v78h-1053z" />
<glyph unicode="`" horiz-adv-x="1024" d="M272 1509l217 -301h119l-198 301h-138z" />
<glyph unicode="a" horiz-adv-x="1073" d="M115 270q0 -119 71 -192q47 -49 114 -69.5t174 -20.5t174 23.5t130 86.5v-98h105v676q0 323 -383 323q-121 0 -203 -31.5t-145 -119.5l75 -66q47 68 107.5 96.5t189.5 28.5q254 0 254 -241v-111h-319q-162 0 -253 -74.5t-91 -210.5zM219 272q0 199 252 199h307v-127 q0 -137 -54 -188t-116.5 -63.5t-130.5 -12.5q-135 0 -196.5 47t-61.5 145z" />
<glyph unicode="b" horiz-adv-x="1105" d="M199 0h104v127q66 -86 137.5 -112.5t155.5 -26.5q369 0 369 506q0 505 -369 505q-84 0 -155.5 -26.5t-137.5 -112.5v598h-104v-1458zM303 494q0 187 49 284q65 129 230 129q164 0 230 -129q48 -94 48 -285q0 -77 -9 -151t-39 -132q-67 -130 -230 -130q-164 0 -230 130 q-49 95 -49 284z" />
<glyph unicode="c" horiz-adv-x="1009" d="M141 494q0 -236 116 -372q115 -134 318 -134q106 0 159 24q84 40 167 127l-72 66q-62 -70 -106 -92q-67 -33 -150 -33q-171 0 -260 131q-37 53 -52 117.5t-15 165.5q0 294 179 380q67 33 147.5 33t137 -27.5t119.5 -97.5l72 66q-83 87 -137 112q-83 39 -186 39 t-184 -34.5t-137 -100.5q-116 -135 -116 -370z" />
<glyph unicode="d" horiz-adv-x="1105" d="M141 494q0 -506 369 -506q84 0 155.5 26.5t137.5 112.5v-127h104v1458h-104v-598q-66 86 -137.5 112.5t-155.5 26.5q-369 0 -369 -505zM246 494q0 190 48 284q66 129 230 129q165 0 230 -129q49 -97 49 -285q0 -77 -9.5 -151t-39.5 -132q-66 -130 -230 -130 q-163 0 -230 130q-48 93 -48 284z" />
<glyph unicode="e" horiz-adv-x="1071" d="M141 489.5q0 -243.5 107.5 -372.5t312.5 -129q121 0 183 28q96 45 174 123l-78 62q-63 -63 -124 -91t-149 -28q-158 0 -239.5 100.5t-81.5 288.5h686v47q0 227 -104.5 354t-290.5 127t-291 -133t-105 -376.5zM246 555q7 131 35 186q33 78 101.5 122t154.5 44t155 -44 q118 -76 131 -247q2 -26 4 -61h-581z" />
<glyph unicode="f" horiz-adv-x="622" d="M94 909h135v-909h105v909h223v78h-223v215q0 164 151 164h72v92h-90q-117 0 -177.5 -72.5t-60.5 -185.5v-213h-135v-78z" />
<glyph unicode="g" horiz-adv-x="1105" d="M141 494q0 -506 369 -506q84 0 155.5 26.5t137.5 112.5v-176q0 -241 -165 -317q-56 -25 -118.5 -25t-97.5 7t-64 20q-48 24 -110 81l-70 -69q79 -71 131 -94q85 -37 188 -37t178 31.5t127 89.5q105 116 105 307v1042h-104v-127q-66 86 -137.5 112.5t-155.5 26.5 q-369 0 -369 -505zM246 494q0 190 48 284q66 129 230 129q165 0 230 -129q49 -97 49 -285q0 -77 -9.5 -151t-39.5 -132q-66 -130 -230 -130q-163 0 -230 130q-48 93 -48 284z" />
<glyph unicode="h" horiz-adv-x="1144" d="M199 0h104v612q0 141 73 218t206 77t202.5 -75.5t69.5 -219.5v-612h104v631q0 172 -97 270t-272 98t-286 -129v588h-104v-1458z" />
<glyph unicode="i" horiz-adv-x="501" d="M186 1329h129v129h-129v-129zM199 0h104v987h-104v-987z" />
<glyph unicode="j" horiz-adv-x="501" d="M-25 -379v-92h91q121 0 179 69.5t58 186.5v1202h-104v-1200q0 -84 -32 -125t-120 -41h-72zM186 1329h129v129h-129v-129z" />
<glyph unicode="k" horiz-adv-x="1079" d="M199 0h104v283l225 260l340 -543h129l-397 618l326 369h-133l-490 -557v1028h-104v-1458z" />
<glyph unicode="l" horiz-adv-x="587" d="M195 256q0 -117 58 -186.5t179 -69.5h90v92h-71q-88 0 -120 41t-32 125v1200h-104v-1202z" />
<glyph unicode="m" horiz-adv-x="1798" d="M199 0h104v612q0 141 73 218t206 77t202.5 -75.5t69.5 -219.5v-612h104v631q0 127 75 201.5t206 74.5t200.5 -75.5t69.5 -219.5v-612h103v631q0 176 -103 274q-98 94 -260 94q-221 0 -336 -180q-92 180 -317 180q-182 0 -293 -129v117h-104v-987z" />
<glyph unicode="n" horiz-adv-x="1144" d="M199 0h104v612q0 141 73 218t206 77t202.5 -75.5t69.5 -219.5v-612h104v631q0 176 -100 272t-272 96t-283 -129v117h-104v-987z" />
<glyph unicode="o" horiz-adv-x="1077" d="M141 494q0 -106 22.5 -213t100.5 -185q108 -108 272 -108h3q166 0 274 108q78 78 100.5 185t22.5 213t-22.5 212.5t-87.5 171.5q-121 121 -287 121t-275 -108q-78 -78 -100.5 -184.5t-22.5 -212.5zM246 494q0 244 86 328.5t207 84.5q120 0 204 -84q79 -79 86 -241 q2 -45 2 -88q0 -174 -39 -260q-42 -91 -142 -132q-52 -22 -111 -22q-121 0 -205 84q-79 79 -86 242q-2 45 -2 88z" />
<glyph unicode="p" horiz-adv-x="1105" d="M199 -471h104v598q66 -86 137.5 -112.5t155.5 -26.5q369 0 369 506q0 505 -369 505q-84 0 -155.5 -26.5t-137.5 -112.5v127h-104v-1458zM303 494q0 187 49 284q65 129 230 129q164 0 230 -129q48 -94 48 -285q0 -77 -9 -151t-39 -132q-67 -130 -230 -130q-164 0 -230 130 q-49 95 -49 284z" />
<glyph unicode="q" horiz-adv-x="1105" d="M141 494q0 -506 369 -506q84 0 155.5 26.5t137.5 112.5v-598h104v1458h-104v-127q-66 86 -137.5 112.5t-155.5 26.5q-369 0 -369 -505zM246 494q0 190 48 284q66 129 230 129q165 0 230 -129q49 -97 49 -285q0 -77 -9.5 -151t-39.5 -132q-66 -130 -230 -130 q-163 0 -230 130q-48 93 -48 284z" />
<glyph unicode="r" horiz-adv-x="837" d="M199 0h104v608q0 126 69 209q75 90 195 90q61 0 101.5 -16.5t85.5 -61.5l75 76q-53 53 -109 73.5t-136 20.5t-159 -36.5t-122 -106.5v131h-104v-987z" />
<glyph unicode="s" horiz-adv-x="1011" d="M102 129q149 -141 400 -141q182 0 288.5 79t106.5 214q0 129 -83 195q-59 46 -206 63l-159 14q-104 10 -152.5 49t-48.5 124t64.5 134t207 49t256.5 -84l70 70q-140 104 -324 104t-280.5 -75.5t-96.5 -204.5q0 -233 297 -258l164 -15q98 -10 143.5 -49t45.5 -116 q0 -201 -297 -201q-209 0 -324 121z" />
<glyph unicode="t" horiz-adv-x="665" d="M88 909h135v-651q0 -113 60.5 -185.5t177.5 -72.5h90v92h-72q-151 0 -151 164v653h223v78h-223v316h-105v-316h-135v-78z" />
<glyph unicode="u" horiz-adv-x="1144" d="M186 356q0 -176 100.5 -272t272.5 -96t283 129v-117h104v987h-104v-612q0 -141 -73 -218t-206 -77t-202.5 75.5t-69.5 219.5v612h-105v-631z" />
<glyph unicode="v" horiz-adv-x="880" d="M29 987l360 -987h103l360 987h-115l-297 -864l-297 864h-114z" />
<glyph unicode="w" horiz-adv-x="1458" d="M29 987l315 -987h107l278 823l279 -823h106l316 987h-115l-252 -864l-283 864h-102l-283 -864l-252 864h-114z" />
<glyph unicode="x" horiz-adv-x="942" d="M82 0h127l264 416l260 -416h127l-334 504l320 483h-127l-246 -397l-250 397h-127l320 -483z" />
<glyph unicode="y" horiz-adv-x="880" d="M29 987l360 -987l-80 -219q-30 -79 -56 -100q-43 -35 -124 -35h-39v-92h49q120 0 187 63q39 35 67 115l459 1255h-115l-297 -864l-297 864h-114z" />
<glyph unicode="z" horiz-adv-x="925" d="M111 0h704v92h-596l596 797v98h-672v-92h562l-594 -797v-98z" />
<glyph unicode="{" horiz-adv-x="647" d="M102 684h37q51 0 88 -38t37 -124v-424q0 -84 12.5 -125t41.5 -71q55 -54 198 -54h29v93h-27q-55 0 -80 5q-52 11 -63 67q-6 30 -6 87v424q0 80 -30 126t-95 79q66 33 95.5 79t29.5 126v424q0 105 28 133q27 27 121 27h27v92h-29q-143 0 -199 -56q-29 -29 -41 -69.5 t-12 -124.5v-424q0 -86 -37 -123q-39 -39 -88 -39h-37v-90z" />
<glyph unicode="|" horiz-adv-x="649" d="M272 -152h105v1762h-105v-1762z" />
<glyph unicode="}" horiz-adv-x="647" d="M102 -59v-93h29q143 0 199 56q29 29 41 69.5t12 124.5v424q0 86 37 123q39 39 88 39h37v90h-37q-49 0 -87 38t-38 124v424q0 84 -12.5 125t-42.5 71q-54 54 -197 54h-29v-92h27q92 0 121 -27q29 -29 29 -133v-424q0 -80 29.5 -126t94.5 -79q-66 -33 -95 -79t-29 -126 v-424q0 -102 -29 -133q-16 -16 -41 -21t-80 -5h-27z" />
<glyph unicode="~" d="M109 522l63 -63q80 80 130 89q17 3 49 3t68 -14.5t85 -35t100 -41t92.5 -20.5t65.5 4.5t51 17.5q50 24 131 105l-63 64q-60 -60 -87 -73q-38 -19 -81 -19t-79 14t-85 35t-100.5 41t-92.5 20t-65.5 -4t-50.5 -17q-51 -26 -131 -106z" />
<glyph unicode="&#xa1;" horiz-adv-x="622" d="M213 850h137v137h-137v-137zM225 -471h113l-6 1065h-101z" />
<glyph unicode="&#xa2;" horiz-adv-x="1019" d="M141 750q0 -217 97.5 -348.5t271.5 -153.5v-248h88v244q97 4 147 29q81 39 156 122l-72 66q-59 -66 -110 -93.5t-121 -31.5v827q70 -4 121 -31.5t110 -93.5l72 66q-75 83 -126 108q-80 39 -177 43v203h-88v-207q-174 -23 -271.5 -153.5t-97.5 -347.5zM246 750 q0 358 264 407v-815q-125 23 -197 125q-37 53 -52 117.5t-15 165.5z" />
<glyph unicode="&#xa3;" horiz-adv-x="1099" d="M102 700h131v-700h754v98h-643v602h324v78h-324v228q0 176 83 271t241 95q96 0 149 -30.5t94 -71.5l76 76q-125 125 -319 124q-199 0 -316 -122q-119 -122 -119 -320v-250h-131v-78z" />
<glyph unicode="&#xa4;" horiz-adv-x="1345" d="M174 111l66 -66l151 152q120 -99 281 -99q160 0 280 99l154 -152l65 66l-151 151q96 116 96 281q0 166 -96 282l151 150l-65 65l-154 -149q-116 96 -280 96q-163 0 -281 -96l-151 149l-66 -65l152 -150q-99 -120 -99 -282q0 -161 99 -281zM326 543q0 144 100 245 q99 101 246 101q145 0 245.5 -100.5t100.5 -245.5q0 -147 -100 -246q-102 -100 -246 -100q-146 0 -246 100t-100 246z" />
<glyph unicode="&#xa5;" horiz-adv-x="1009" d="M20 1458l336 -667h-223v-78h262l56 -109v-108h-318v-78h318v-418h110v418h316v78h-316v108l55 109h261v78h-222l334 667h-115l-366 -739l-371 739h-117z" />
<glyph unicode="&#xa6;" horiz-adv-x="671" d="M272 -152h105v717h-105v-717zM272 893h105v717h-105v-717z" />
<glyph unicode="&#xa7;" horiz-adv-x="1159" d="M199 506q0 -133 71.5 -233.5t202.5 -137.5l170 -47q88 -25 140.5 -86t52.5 -143q0 -119 -70 -181.5t-186 -62.5q-245 0 -267 219h-110q12 -150 117 -234q105 -83 260 -83q159 0 264 96q102 94 102 246q0 111 -57.5 188.5t-153.5 110.5q153 68 207 228q19 54 19 120 q0 207 -160 317q-51 35 -115 54l-170 47q-186 53 -186 219q0 117 67.5 174t181.5 57t180 -49t77 -164h108q-8 146 -114 230q-101 79 -250 79q-154 0 -253 -87q-106 -93 -106 -240q0 -113 53.5 -180.5t149.5 -108.5q-152 -67 -206 -228q-19 -55 -19 -120zM309 506 q0 128 75 209.5t193 81.5t201 -84q45 -45 58.5 -96.5t13.5 -116.5q0 -121 -75 -203t-195 -82q-121 0 -199 84q-72 76 -72 207z" />
<glyph unicode="&#xa8;" horiz-adv-x="1024" d="M240 1229h118v157h-118v-157zM666 1229h118v157h-118v-157z" />
<glyph unicode="&#xa9;" horiz-adv-x="1830" d="M174 729q0 -154 58.5 -289t159 -235.5t235.5 -158.5t288 -58q154 0 289 58t235.5 158.5t159 235.5t58.5 289t-58.5 289t-159 235.5t-235.5 158.5t-289 58t-288.5 -58t-235 -158.5t-159 -235.5t-58.5 -289zM272 728q0 132 51.5 251t138.5 208t203.5 141t248.5 52t250 -52 t205 -141t138.5 -208t51.5 -251t-51.5 -250t-138.5 -207t-204.5 -141t-250 -52t-249 52t-203.5 141t-138.5 207t-51.5 250zM561 729q0 -289 199 -388q69 -34 159.5 -34t152 27t120.5 80l-62 61q-55 -49 -100 -66.5t-114.5 -17.5t-122 27.5t-83.5 73.5q-57 88 -57 237 q0 239 141 313q52 27 121.5 27t114.5 -18.5t100 -67.5l62 61q-68 60 -112 78q-72 31 -161 31t-158 -34t-113 -92q-87 -115 -87 -298z" />
<glyph unicode="&#xaa;" horiz-adv-x="915" d="M121 885q0 -95 48 -145t100.5 -65.5t135.5 -15.5t135 18.5t101 65.5v-73h88v536q0 123 -74.5 190.5t-228.5 67.5q-94 0 -159.5 -25.5t-119.5 -97.5l66 -55q37 55 84 76.5t147 21.5q197 0 197 -186v-86h-248q-129 0 -200.5 -59.5t-71.5 -167.5zM209 887q0 154 194 153h238 v-96q0 -109 -41 -147q-41 -39 -90 -48.5t-127.5 -9.5t-126 36t-47.5 112z" />
<glyph unicode="&#xab;" horiz-adv-x="1079" d="M86 543l401 -402v135l-266 267l266 266v135zM510 543l401 -402v135l-266 267l266 266v135z" />
<glyph unicode="&#xac;" d="M109 492h739v-273h96v369h-835v-96z" />
<glyph unicode="&#xad;" horiz-adv-x="872" d="M168 492h537v96h-537v-96z" />
<glyph unicode="&#xae;" horiz-adv-x="1830" d="M174 729q0 -154 58.5 -289t159 -235.5t235.5 -158.5t288 -58q154 0 289 58t235.5 158.5t159 235.5t58.5 289t-58.5 289t-159 235.5t-235.5 158.5t-289 58t-288.5 -58t-235 -158.5t-159 -235.5t-58.5 -289zM270 729q0 133 51.5 252t138.5 208t204.5 141t250.5 52t251 -52 t205 -141t138.5 -208t51.5 -252t-51.5 -252t-138.5 -208t-204.5 -141t-251.5 -52q-133 0 -250.5 52t-204.5 141t-138.5 208t-51.5 252zM682 319h92v343h135l203 -343h107l-207 351q82 23 134 80t52 149q0 104 -76 173q-75 69 -178 69h-262v-822zM774 743v314h160 q74 0 123 -45t49 -113t-49 -112t-123 -44h-160z" />
<glyph unicode="&#xaf;" horiz-adv-x="1024" d="M209 1245h606v94h-606v-94z" />
<glyph unicode="&#xb0;" horiz-adv-x="937" d="M147 1151q0 -132 95 -227t227 -95t227 95t95 227t-95 227t-227 95t-227 -95t-95 -227zM240 1151q0 101 64 169q62 66 163 66q97 0 165 -68q66 -66 66 -168q0 -50 -17 -93t-48 -75q-65 -67 -164 -67t-164 67t-65 169z" />
<glyph unicode="&#xb1;" d="M109 0h835v96h-835v-96zM109 553h370v-373h96v373h369v96h-369v371h-96v-371h-370v-96z" />
<glyph unicode="&#xb2;" horiz-adv-x="688" d="M102 584h484v82h-375l305 385q37 47 53.5 86t16.5 92q0 111 -66.5 174t-176.5 63t-175.5 -66.5t-65.5 -170.5h91q0 86 46 120.5t111.5 34.5t104.5 -42t39 -110.5t-48 -129.5l-344 -436v-82z" />
<glyph unicode="&#xb3;" horiz-adv-x="720" d="M102 807q4 -115 80 -177q71 -57 180 -57q112 0 183 65q73 67 73 185q0 162 -133 211q117 51 117 195q0 109 -66.5 173t-171 64t-173 -59t-76.5 -166h90q6 66 46 104.5t106 38.5t110.5 -39.5t44.5 -117.5q0 -158 -156 -158h-16v-80h16q172 0 172 -166q0 -80 -47 -124 t-114.5 -44t-117.5 35t-54 117h-93z" />
<glyph unicode="&#xb4;" horiz-adv-x="1024" d="M416 1208h119l217 301h-138z" />
<glyph unicode="&#xb6;" horiz-adv-x="1185" d="M92 1069q0 -155 106 -266q117 -123 302 -123v-1151h104v1831h252v-1831h105v1929h-437q-200 0 -322 -120q-110 -108 -110 -269z" />
<glyph unicode="&#xb7;" horiz-adv-x="540" d="M195 465h151v151h-151v-151z" />
<glyph unicode="&#xb8;" horiz-adv-x="1024" d="M371 -451h129l131 308h-113z" />
<glyph unicode="&#xb9;" horiz-adv-x="509" d="M92 1212l164 146v-774h90v874h-90l-164 -141v-105z" />
<glyph unicode="&#xba;" horiz-adv-x="925" d="M147 1063q0 -86 17.5 -169t81.5 -146q86 -86 217 -86t217 86q63 63 80.5 146t17.5 169t-17.5 169t-80.5 146q-86 86 -217 86t-217 -86q-63 -63 -81 -146t-18 -169zM236 1063q0 66 10 137.5t66.5 128t150.5 55.5q94 0 150.5 -56t66.5 -127.5t10 -137.5t-10 -137.5 t-49 -110.5q-74 -74 -168 -74t-150.5 56.5t-66.5 128t-10 137.5z" />
<glyph unicode="&#xbb;" horiz-adv-x="1079" d="M168 141l401 402l-401 401v-135l266 -266l-266 -267v-135zM592 141l401 402l-401 401v-135l266 -266l-266 -267v-135z" />
<glyph unicode="&#xbc;" horiz-adv-x="1548" d="M92 1212l164 146v-774h90v874h-90l-164 -141v-105zM344 0h92l680 1458h-92zM922 137h348v-137h90v137h106v82h-106v246h-90v-246h-250l313 655h-96l-315 -655v-82z" />
<glyph unicode="&#xbd;" horiz-adv-x="1564" d="M92 1212l164 146v-774h90v874h-90l-164 -141v-105zM313 0h93l679 1458h-92zM979 0h483v82h-375l306 385q35 47 52 86t17 92q0 111 -66.5 174.5t-176 63.5t-175 -66.5t-65.5 -171.5h90q0 86 46 121t112 35t104.5 -42t38.5 -111t-47 -130l-344 -436v-82z" />
<glyph unicode="&#xbe;" horiz-adv-x="1650" d="M102 807q4 -115 80 -177q71 -57 180 -57q112 0 183 65q73 67 73 185q0 162 -133 211q117 51 117 195q0 109 -66.5 173t-171 64t-173 -59t-76.5 -166h90q6 66 46 104.5t106 38.5t110.5 -39.5t44.5 -117.5q0 -158 -156 -158h-16v-80h16q172 0 172 -166q0 -80 -47 -124 t-114.5 -44t-117.5 35t-54 117h-93zM467 0h92l680 1458h-92zM1024 137h348v-137h90v137h107v82h-107v246h-90v-246h-250l314 655h-97l-315 -655v-82z" />
<glyph unicode="&#xbf;" horiz-adv-x="999" d="M102 -126q0 -75 28 -140.5t77 -113.5q105 -103 262 -103q161 0 265 106q102 104 102 254h-105q0 -110 -71 -188q-72 -80 -191 -80q-111 0 -187 77q-75 74 -75 191q0 59 19.5 100t49.5 89l173 253q31 45 45 85t14 100v92h-105v-96q0 -71 -36 -123l-174 -256 q-41 -59 -66 -115.5t-25 -131.5zM387 850h137v137h-137v-137z" />
<glyph unicode="&#xc0;" horiz-adv-x="1232" d="M31 0h119l126 354h680l127 -354h119l-536 1458h-99zM311 453l305 858l306 -858h-611zM376 1898l217 -301h119l-198 301h-138z" />
<glyph unicode="&#xc1;" horiz-adv-x="1232" d="M31 0h119l126 354h680l127 -354h119l-536 1458h-99zM311 453l305 858l306 -858h-611zM520 1597h119l217 301h-138z" />
<glyph unicode="&#xc2;" horiz-adv-x="1232" d="M31 0h119l126 354h680l127 -354h119l-536 1458h-99zM309 1597h117l190 224l190 -224h117l-252 301h-110zM311 453l305 858l306 -858h-611z" />
<glyph unicode="&#xc3;" horiz-adv-x="1232" d="M31 0h119l126 354h680l127 -354h119l-536 1458h-99zM301 1712l61 -59q47 47 71.5 57t52.5 10q39 0 93 -31.5t85.5 -46t60 -14.5t45 2t38.5 11q49 21 113 85l-61 60q-47 -47 -73 -57.5t-53 -10.5q-39 0 -93 33t-83.5 46t-60 13t-47 -2t-38.5 -11q-48 -20 -111 -85z M311 453l305 858l306 -858h-611z" />
<glyph unicode="&#xc4;" horiz-adv-x="1232" d="M31 0h119l126 354h680l127 -354h119l-536 1458h-99zM311 453l305 858l306 -858h-611zM344 1618h118v157h-118v-157zM770 1618h118v157h-118v-157z" />
<glyph unicode="&#xc5;" horiz-adv-x="1232" d="M31 0h119l126 354h680l127 -354h119l-536 1458h-99zM311 453l305 858l306 -858h-611zM383 1763q0 -96 68 -166q68 -69 165 -69t165 69q68 70 68 166q0 99 -68 166q-70 68 -165 68t-165 -68q-68 -67 -68 -166zM466 1763q0 61 44.5 104.5t105.5 43.5t105.5 -43.5 t44.5 -104.5t-44.5 -105t-105.5 -44t-105.5 44t-44.5 105z" />
<glyph unicode="&#xc6;" horiz-adv-x="1845" d="M20 0h121l185 354h522v-354h883v98h-775v582h660v98h-660v582h775v98h-938zM373 453l475 907v-907h-475z" />
<glyph unicode="&#xc7;" horiz-adv-x="1318" d="M168 729q0 -283 16 -361q28 -140 109 -221q159 -159 375 -159q193 0 326 114t169 312h-108q-33 -152 -136.5 -240t-250.5 -88q-166 0 -277 113q-74 74 -95 187q-17 93 -17 343t14 327t36.5 121t69.5 91t119 75.5t150 28.5q147 0 248.5 -88t134.5 -240h112 q-36 197 -167 312q-132 114 -328 114q-216 0 -365 -149q-91 -91 -117 -223q-18 -88 -18 -369zM490 -451h129l131 308h-113z" />
<glyph unicode="&#xc8;" horiz-adv-x="1224" d="M225 0h885v98h-774v588h659v98h-659v576h774v98h-885v-1458zM403 1898l217 -301h119l-198 301h-138z" />
<glyph unicode="&#xc9;" horiz-adv-x="1224" d="M225 0h885v98h-774v588h659v98h-659v576h774v98h-885v-1458zM547 1597h119l217 301h-138z" />
<glyph unicode="&#xca;" horiz-adv-x="1224" d="M225 0h885v98h-774v588h659v98h-659v576h774v98h-885v-1458zM336 1597h117l190 224l190 -224h117l-252 301h-110z" />
<glyph unicode="&#xcb;" horiz-adv-x="1224" d="M225 0h885v98h-774v588h659v98h-659v576h774v98h-885v-1458zM371 1618h118v157h-118v-157zM797 1618h118v157h-118v-157z" />
<glyph unicode="&#xcc;" horiz-adv-x="561" d="M225 0h111v1458h-111v-1458zM227 1898l217 -301h119l-198 301h-138z" />
<glyph unicode="&#xcd;" horiz-adv-x="561" d="M225 0h111v1458h-111v-1458zM228 1597h119l217 301h-138z" />
<glyph unicode="&#xce;" horiz-adv-x="561" d="M225 0h111v1458h-111v-1458zM225 1597h117l190 224l190 -224h117l-252 301h-110z" />
<glyph unicode="&#xcf;" horiz-adv-x="561" d="M225 0h111v1458h-111v-1458zM228 1618h118v157h-118v-157zM654 1618h118v157h-118v-157z" />
<glyph unicode="&#xd0;" horiz-adv-x="1411" d="M82 692h166v-692h477q160 0 269 66q145 88 208 233q30 67 35.5 182t5.5 244t-3 206t-11 127q-12 76 -72 179t-168 162t-250 59h-491v-680h-166v-86zM358 96v596h365v86h-365v584h353q111 0 192.5 -36t147.5 -126q57 -75 67 -152t12.5 -151t2.5 -180.5t-1.5 -177 t-8.5 -119.5q-12 -84 -65 -164q-104 -160 -347 -160h-353z" />
<glyph unicode="&#xd1;" horiz-adv-x="1513" d="M225 0h111v1268l842 -1268h110v1458h-110v-1263l-842 1263h-111v-1458zM443 1712l61 -59q47 47 71.5 57t52.5 10q39 0 93 -31.5t85.5 -46t60 -14.5t45 2t38.5 11q49 21 113 85l-61 60q-47 -47 -73 -57.5t-53 -10.5q-39 0 -93 33t-83.5 46t-60 13t-47 -2t-38.5 -11 q-48 -20 -111 -85z" />
<glyph unicode="&#xd2;" horiz-adv-x="1335" d="M168 729q0 -283 16 -361q28 -140 109 -221q159 -159 375 -159q215 0 364 149q93 93 118 221q17 89 17 371q0 280 -15 358q-27 141 -110 224q-159 159 -374 159q-216 0 -365 -149q-91 -91 -117 -223q-18 -88 -18 -369zM279 729q0 250 14 327t36.5 121t69.5 91t119 75.5 t150 28.5q164 0 276 -112q74 -74 96 -188q17 -92 17 -343q0 -252 -14.5 -327.5t-37 -119.5t-69.5 -91t-119 -76t-149 -29q-166 0 -277 113q-74 74 -95 187q-17 93 -17 343zM428 1898l217 -301h119l-198 301h-138z" />
<glyph unicode="&#xd3;" horiz-adv-x="1335" d="M168 729q0 -283 16 -361q28 -140 109 -221q159 -159 375 -159q215 0 364 149q93 93 118 221q17 89 17 371q0 280 -15 358q-27 141 -110 224q-159 159 -374 159q-216 0 -365 -149q-91 -91 -117 -223q-18 -88 -18 -369zM279 729q0 250 14 327t36.5 121t69.5 91t119 75.5 t150 28.5q164 0 276 -112q74 -74 96 -188q17 -92 17 -343q0 -252 -14.5 -327.5t-37 -119.5t-69.5 -91t-119 -76t-149 -29q-166 0 -277 113q-74 74 -95 187q-17 93 -17 343zM572 1597h119l217 301h-138z" />
<glyph unicode="&#xd4;" horiz-adv-x="1335" d="M168 729q0 -283 16 -361q28 -140 109 -221q159 -159 375 -159q215 0 364 149q93 93 118 221q17 89 17 371q0 280 -15 358q-27 141 -110 224q-159 159 -374 159q-216 0 -365 -149q-91 -91 -117 -223q-18 -88 -18 -369zM279 729q0 250 14 327t36.5 121t69.5 91t119 75.5 t150 28.5q164 0 276 -112q74 -74 96 -188q17 -92 17 -343q0 -252 -14.5 -327.5t-37 -119.5t-69.5 -91t-119 -76t-149 -29q-166 0 -277 113q-74 74 -95 187q-17 93 -17 343zM361 1597h117l190 224l190 -224h117l-252 301h-110z" />
<glyph unicode="&#xd5;" horiz-adv-x="1335" d="M168 729q0 -283 16 -361q28 -140 109 -221q159 -159 375 -159q215 0 364 149q93 93 118 221q17 89 17 371q0 280 -15 358q-27 141 -110 224q-159 159 -374 159q-216 0 -365 -149q-91 -91 -117 -223q-18 -88 -18 -369zM279 729q0 250 14 327t36.5 121t69.5 91t119 75.5 t150 28.5q164 0 276 -112q74 -74 96 -188q17 -92 17 -343q0 -252 -14.5 -327.5t-37 -119.5t-69.5 -91t-119 -76t-149 -29q-166 0 -277 113q-74 74 -95 187q-17 93 -17 343zM353 1712l61 -59q47 47 71.5 57t52.5 10q39 0 93 -31.5t85.5 -46t60 -14.5t45 2t38.5 11 q49 21 113 85l-61 60q-47 -47 -73 -57.5t-53 -10.5q-39 0 -93 33t-83.5 46t-60 13t-47 -2t-38.5 -11q-48 -20 -111 -85z" />
<glyph unicode="&#xd6;" horiz-adv-x="1335" d="M168 729q0 -283 16 -361q28 -140 109 -221q159 -159 375 -159q215 0 364 149q93 93 118 221q17 89 17 371q0 280 -15 358q-27 141 -110 224q-159 159 -374 159q-216 0 -365 -149q-91 -91 -117 -223q-18 -88 -18 -369zM279 729q0 250 14 327t36.5 121t69.5 91t119 75.5 t150 28.5q164 0 276 -112q74 -74 96 -188q17 -92 17 -343q0 -252 -14.5 -327.5t-37 -119.5t-69.5 -91t-119 -76t-149 -29q-166 0 -277 113q-74 74 -95 187q-17 93 -17 343zM396 1618h118v157h-118v-157zM822 1618h118v157h-118v-157z" />
<glyph unicode="&#xd7;" d="M145 223l64 -63l317 317l318 -317l63 63l-317 318l317 317l-63 64l-318 -318l-317 318l-64 -64l318 -317z" />
<glyph unicode="&#xd8;" horiz-adv-x="1335" d="M168 729q0 -283 16 -361q28 -140 119 -231l19 -18l-101 -209h109l71 149q121 -72 246 -71q236 0 385 149q93 93 118 221q17 89 17 371q0 280 -15 358q-27 141 -120 234l-18 18l100 209h-108l-72 -149q-121 72 -246 71q-236 0 -385 -149q-91 -91 -117 -223 q-18 -88 -18 -369zM279 667.5q0 178.5 3 261.5t14 143q21 114 85 178q122 122 287 122q125 1 221 -67l-518 -1084q-61 69 -79 183q-13 85 -13 263.5zM446 154l519 1083q84 -94 90 -321q2 -78 2 -191t-3 -196t-14 -143q-22 -113 -87 -178q-122 -122 -285 -122q-129 0 -222 68 z" />
<glyph unicode="&#xd9;" horiz-adv-x="1406" d="M205 473q0 -213 141 -349q139 -136 359 -136q219 0 359 136t140 349v985h-110v-971q0 -181 -107 -291q-106 -110 -282 -110q-177 0 -283 110q-107 110 -107 291v971h-110v-985zM465 1898l217 -301h119l-199 301h-137z" />
<glyph unicode="&#xda;" horiz-adv-x="1406" d="M205 473q0 -213 141 -349q139 -136 359 -136q219 0 359 136t140 349v985h-110v-971q0 -181 -107 -291q-106 -110 -282 -110q-177 0 -283 110q-107 110 -107 291v971h-110v-985zM608 1597h119l217 301h-137z" />
<glyph unicode="&#xdb;" horiz-adv-x="1406" d="M205 473q0 -213 141 -349q139 -136 359 -136q219 0 359 136t140 349v985h-110v-971q0 -181 -107 -291q-106 -110 -282 -110q-177 0 -283 110q-107 110 -107 291v971h-110v-985zM397 1597h117l191 224l190 -224h117l-252 301h-111z" />
<glyph unicode="&#xdc;" horiz-adv-x="1406" d="M205 473q0 -213 141 -349q139 -136 359 -136q219 0 359 136t140 349v985h-110v-971q0 -181 -107 -291q-106 -110 -282 -110q-177 0 -283 110q-107 110 -107 291v971h-110v-985zM432 1618h119v158h-119v-158zM858 1618h119v158h-119v-158z" />
<glyph unicode="&#xdd;" horiz-adv-x="1011" d="M20 1458l431 -854v-604h110v604l430 854h-119l-362 -737l-371 737h-119zM412 1597h119l217 301h-138z" />
<glyph unicode="&#xde;" horiz-adv-x="1323" d="M225 0h111v315h424q195 0 314 110q126 116 126 310q0 195 -126 309q-120 111 -314 111h-424v303h-111v-1458zM336 414v643h412q239 0 316 -179q26 -61 26 -143q0 -157 -97 -243q-89 -78 -245 -78h-412z" />
<glyph unicode="&#xdf;" horiz-adv-x="1126" d="M199 0h104v1075q0 135 64.5 220t211 85t214.5 -65q71 -63 71 -165.5t-54 -160t-146 -57.5h-80v-92h100q86 0 133 -47q47 -44 47 -140v-366q0 -139 -114 -184q-27 -11 -76 -11h-90v-92h110q117 0 195 70q80 76 80 204v363q0 103 -20.5 143.5t-46 64t-64.5 46.5 q129 86 129 250q0 163 -111 252q-100 80 -275 80t-278.5 -105.5t-103.5 -292.5v-1075z" />
<glyph unicode="&#xe0;" horiz-adv-x="1073" d="M115 270q0 -119 71 -192q47 -49 114 -69.5t174 -20.5t174 23.5t130 86.5v-98h105v676q0 323 -383 323q-121 0 -203 -31.5t-145 -119.5l75 -66q47 68 107.5 96.5t189.5 28.5q254 0 254 -241v-111h-319q-162 0 -253 -74.5t-91 -210.5zM219 272q0 199 252 199h307v-127 q0 -137 -54 -188t-116.5 -63.5t-130.5 -12.5q-135 0 -196.5 47t-61.5 145zM272 1509l217 -301h119l-198 301h-138z" />
<glyph unicode="&#xe1;" horiz-adv-x="1073" d="M115 270q0 -119 71 -192q47 -49 114 -69.5t174 -20.5t174 23.5t130 86.5v-98h105v676q0 323 -383 323q-121 0 -203 -31.5t-145 -119.5l75 -66q47 68 107.5 96.5t189.5 28.5q254 0 254 -241v-111h-319q-162 0 -253 -74.5t-91 -210.5zM219 272q0 199 252 199h307v-127 q0 -137 -54 -188t-116.5 -63.5t-130.5 -12.5q-135 0 -196.5 47t-61.5 145zM416 1208h119l217 301h-138z" />
<glyph unicode="&#xe2;" horiz-adv-x="1073" d="M115 270q0 -119 71 -192q47 -49 114 -69.5t174 -20.5t174 23.5t130 86.5v-98h105v676q0 323 -383 323q-121 0 -203 -31.5t-145 -119.5l75 -66q47 68 107.5 96.5t189.5 28.5q254 0 254 -241v-111h-319q-162 0 -253 -74.5t-91 -210.5zM205 1208h117l190 224l190 -224h117 l-252 301h-110zM219 272q0 199 252 199h307v-127q0 -137 -54 -188t-116.5 -63.5t-130.5 -12.5q-135 0 -196.5 47t-61.5 145z" />
<glyph unicode="&#xe3;" horiz-adv-x="1073" d="M115 270q0 -119 71 -192q47 -49 114 -69.5t174 -20.5t174 23.5t130 86.5v-98h105v676q0 323 -383 323q-121 0 -203 -31.5t-145 -119.5l75 -66q47 68 107.5 96.5t189.5 28.5q254 0 254 -241v-111h-319q-162 0 -253 -74.5t-91 -210.5zM197 1323l61 -59q47 47 71.5 57 t52.5 10q39 0 93 -31.5t85.5 -46t60 -14.5t45 2t38.5 11q49 21 113 85l-61 60q-47 -47 -73 -57.5t-53 -10.5q-39 0 -93 33t-83.5 46t-60 13t-47 -2t-38.5 -11q-48 -20 -111 -85zM219 272q0 199 252 199h307v-127q0 -137 -54 -188t-116.5 -63.5t-130.5 -12.5 q-135 0 -196.5 47t-61.5 145z" />
<glyph unicode="&#xe4;" horiz-adv-x="1073" d="M115 270q0 -119 71 -192q47 -49 114 -69.5t174 -20.5t174 23.5t130 86.5v-98h105v676q0 323 -383 323q-121 0 -203 -31.5t-145 -119.5l75 -66q47 68 107.5 96.5t189.5 28.5q254 0 254 -241v-111h-319q-162 0 -253 -74.5t-91 -210.5zM219 272q0 199 252 199h307v-127 q0 -137 -54 -188t-116.5 -63.5t-130.5 -12.5q-135 0 -196.5 47t-61.5 145zM240 1229h118v157h-118v-157zM666 1229h118v157h-118v-157z" />
<glyph unicode="&#xe5;" horiz-adv-x="1073" d="M115 270q0 -119 71 -192q47 -49 114 -69.5t174 -20.5t174 23.5t130 86.5v-98h105v676q0 323 -383 323q-121 0 -203 -31.5t-145 -119.5l75 -66q47 68 107.5 96.5t189.5 28.5q254 0 254 -241v-111h-319q-162 0 -253 -74.5t-91 -210.5zM219 272q0 199 252 199h307v-127 q0 -137 -54 -188t-116.5 -63.5t-130.5 -12.5q-135 0 -196.5 47t-61.5 145zM279 1386q0 -96 68 -166q68 -69 165 -69t165 69q68 70 68 166q0 99 -68 166q-70 68 -165 68t-165 -68q-68 -67 -68 -166zM362 1386q0 61 44.5 104.5t105.5 43.5t105.5 -43.5t44.5 -104.5t-44.5 -105 t-105.5 -44t-105.5 44t-44.5 105z" />
<glyph unicode="&#xe6;" horiz-adv-x="1708" d="M115 270q0 -119 71 -192q47 -49 114 -69.5t190.5 -20.5t207.5 42t146 142q102 -184 352 -184q123 0 203 37.5t155 113.5l-77 62q-63 -63 -124 -91t-149 -28q-158 0 -239.5 100.5t-81.5 288.5h686v47q0 227 -104.5 354t-290.5 127q-217 0 -320 -174q-76 174 -354 174 q-121 0 -203 -31.5t-145 -119.5l75 -66q47 68 107.5 96.5t189.5 28.5q254 0 254 -241v-111h-319q-162 0 -253 -74.5t-91 -210.5zM219 272q0 199 252 199h307v-127q0 -137 -54 -188t-116.5 -63.5t-130.5 -12.5q-135 0 -196.5 47t-61.5 145zM883 555q7 131 35 186 q33 78 101 122t155 44q86 0 154 -44q119 -76 132 -247q2 -26 4 -61h-581z" />
<glyph unicode="&#xe7;" horiz-adv-x="1019" d="M141 494q0 -236 116 -372q115 -134 318 -134q106 0 159 24q84 40 167 127l-72 66q-62 -70 -106 -92q-67 -33 -150 -33q-171 0 -260 131q-37 53 -52 117.5t-15 165.5q0 294 179 380q67 33 147.5 33t137 -27.5t119.5 -97.5l72 66q-83 87 -137 112q-83 39 -186 39 t-184 -34.5t-137 -100.5q-116 -135 -116 -370zM371 -451h129l131 308h-113z" />
<glyph unicode="&#xe8;" horiz-adv-x="1071" d="M141 489.5q0 -243.5 107.5 -372.5t312.5 -129q121 0 183 28q96 45 174 123l-78 62q-63 -63 -124 -91t-149 -28q-158 0 -239.5 100.5t-81.5 288.5h686v47q0 227 -104.5 354t-290.5 127t-291 -133t-105 -376.5zM246 555q7 131 35 186q33 78 101.5 122t154.5 44t155 -44 q118 -76 131 -247q2 -26 4 -61h-581zM301 1509l217 -301h119l-198 301h-138z" />
<glyph unicode="&#xe9;" horiz-adv-x="1071" d="M141 489.5q0 -243.5 107.5 -372.5t312.5 -129q121 0 183 28q96 45 174 123l-78 62q-63 -63 -124 -91t-149 -28q-158 0 -239.5 100.5t-81.5 288.5h686v47q0 227 -104.5 354t-290.5 127t-291 -133t-105 -376.5zM246 555q7 131 35 186q33 78 101.5 122t154.5 44t155 -44 q118 -76 131 -247q2 -26 4 -61h-581zM445 1208h119l217 301h-138z" />
<glyph unicode="&#xea;" horiz-adv-x="1071" d="M141 489.5q0 -243.5 107.5 -372.5t312.5 -129q121 0 183 28q96 45 174 123l-78 62q-63 -63 -124 -91t-149 -28q-158 0 -239.5 100.5t-81.5 288.5h686v47q0 227 -104.5 354t-290.5 127t-291 -133t-105 -376.5zM234 1208h117l190 224l190 -224h117l-252 301h-110zM246 555 q7 131 35 186q33 78 101.5 122t154.5 44t155 -44q118 -76 131 -247q2 -26 4 -61h-581z" />
<glyph unicode="&#xeb;" horiz-adv-x="1071" d="M141 489.5q0 -243.5 107.5 -372.5t312.5 -129q121 0 183 28q96 45 174 123l-78 62q-63 -63 -124 -91t-149 -28q-158 0 -239.5 100.5t-81.5 288.5h686v47q0 227 -104.5 354t-290.5 127t-291 -133t-105 -376.5zM246 555q7 131 35 186q33 78 101.5 122t154.5 44t155 -44 q118 -76 131 -247q2 -26 4 -61h-581zM269 1229h118v157h-118v-157zM695 1229h118v157h-118v-157z" />
<glyph unicode="&#xec;" horiz-adv-x="501" d="M199 0h104v987h-104v-987zM200 1509l217 -301h119l-198 301h-138z" />
<glyph unicode="&#xed;" horiz-adv-x="501" d="M199 0h104v987h-104v-987zM201 1208h119l217 301h-138z" />
<glyph unicode="&#xee;" horiz-adv-x="501" d="M199 0h104v987h-104v-987zM201 1208h117l190 224l190 -224h117l-252 301h-110z" />
<glyph unicode="&#xef;" horiz-adv-x="501" d="M199 0h104v987h-104v-987zM201 1229h118v157h-118v-157zM627 1229h118v157h-118v-157z" />
<glyph unicode="&#xf0;" horiz-adv-x="1077" d="M141 494q0 -106 22.5 -213t100.5 -185q109 -109 275 -108q166 0 274 108q78 78 100.5 185t22.5 191.5t-4 137t-18 102.5q-23 89 -105 232l-147 252h116v78h-162l-106 184h-109l109 -184h-195v-78h240l137 -231q-59 34 -153 34q-166 0 -275 -108q-78 -78 -100.5 -184.5 t-22.5 -212.5zM246 494q0 244 86 328.5t207 84.5q120 0 204 -84q79 -79 86 -241q2 -45 2 -88q0 -174 -39 -260q-42 -91 -142 -132q-52 -22 -111 -22q-121 0 -205 84q-79 79 -86 242q-2 45 -2 88z" />
<glyph unicode="&#xf1;" horiz-adv-x="1144" d="M199 0h104v612q0 141 73 218t206 77t202.5 -75.5t69.5 -219.5v-612h104v631q0 176 -100 272t-272 96t-283 -129v117h-104v-987zM267 1323l61 -59q47 47 71.5 57t52.5 10q39 0 93 -31.5t85.5 -46t60 -14.5t45 2t38.5 11q49 21 113 85l-61 60q-47 -47 -73 -57.5t-53 -10.5 q-39 0 -93 33t-83.5 46t-60 13t-47 -2t-38.5 -11q-48 -20 -111 -85z" />
<glyph unicode="&#xf2;" horiz-adv-x="1077" d="M272 494q0 -106 22.5 -213t100.5 -185q109 -109 275 -108q166 0 274 108q78 78 100.5 185t22.5 213t-22.5 212.5t-88.5 171.5q-120 121 -286 121t-275 -108q-78 -78 -100.5 -184.5t-22.5 -212.5zM272 1509l217 -301h119l-198 301h-138zM377 494q0 244 86 328.5t207 84.5 q122 0 204 -84q77 -77 86 -241q3 -45 3 -88q0 -241 -89 -330q-84 -84 -204.5 -84t-204.5 84q-79 79 -86 242q-2 45 -2 88z" />
<glyph unicode="&#xf3;" horiz-adv-x="1077" d="M141 494q0 -106 22.5 -213t100.5 -185q109 -109 275 -108q166 0 274 108q78 78 100.5 185t22.5 213t-22.5 212.5t-87.5 171.5q-121 121 -287 121t-275 -108q-78 -78 -100.5 -184.5t-22.5 -212.5zM246 494q0 244 86 328.5t207 84.5q120 0 204 -84q79 -79 86 -241 q2 -45 2 -88q0 -174 -39 -260q-42 -91 -142 -132q-52 -22 -111 -22q-121 0 -205 84q-79 79 -86 242q-2 45 -2 88zM443 1208h119l217 301h-138z" />
<glyph unicode="&#xf4;" horiz-adv-x="1077" d="M141 494q0 -106 22.5 -213t100.5 -185q109 -109 275 -108q166 0 274 108q78 78 100.5 185t22.5 213t-22.5 212.5t-87.5 171.5q-121 121 -287 121t-275 -108q-78 -78 -100.5 -184.5t-22.5 -212.5zM232 1208h117l190 224l190 -224h117l-252 301h-110zM246 494 q0 244 86 328.5t207 84.5q120 0 204 -84q79 -79 86 -241q2 -45 2 -88q0 -174 -39 -260q-42 -91 -142 -132q-52 -22 -111 -22q-121 0 -205 84q-79 79 -86 242q-2 45 -2 88z" />
<glyph unicode="&#xf5;" horiz-adv-x="1077" d="M141 494q0 -106 22.5 -213t100.5 -185q109 -109 275 -108q166 0 274 108q78 78 100.5 185t22.5 213t-22.5 212.5t-87.5 171.5q-121 121 -287 121t-275 -108q-78 -78 -100.5 -184.5t-22.5 -212.5zM224 1323l61 -59q47 47 71.5 57t52.5 10q39 0 93 -31.5t85.5 -46t60 -14.5 t45 2t38.5 11q49 21 113 85l-61 60q-47 -47 -73 -57.5t-53 -10.5q-39 0 -93 33t-83.5 46t-60 13t-47 -2t-38.5 -11q-48 -20 -111 -85zM246 494q0 244 86 328.5t207 84.5q120 0 204 -84q79 -79 86 -241q2 -45 2 -88q0 -174 -39 -260q-42 -91 -142 -132q-52 -22 -111 -22 q-121 0 -205 84q-79 79 -86 242q-2 45 -2 88z" />
<glyph unicode="&#xf6;" horiz-adv-x="1077" d="M141 494q0 -106 22.5 -213t100.5 -185q109 -109 275 -108q166 0 274 108q78 78 100.5 185t22.5 213t-22.5 212.5t-87.5 171.5q-121 121 -287 121t-275 -108q-78 -78 -100.5 -184.5t-22.5 -212.5zM246 494q0 244 86 328.5t207 84.5q120 0 204 -84q79 -79 86 -241 q2 -45 2 -88q0 -174 -39 -260q-42 -91 -142 -132q-52 -22 -111 -22q-121 0 -205 84q-79 79 -86 242q-2 45 -2 88zM267 1229h118v157h-118v-157zM693 1229h118v157h-118v-157z" />
<glyph unicode="&#xf7;" d="M109 492h835v96h-835v-96zM455 123h143v143h-143v-143zM455 813h143v143h-143v-143z" />
<glyph unicode="&#xf8;" horiz-adv-x="1077" d="M141 495q0 -105 21.5 -210t95.5 -183l-115 -192h99l82 137q94 -59 196 -59q185 0 293 108q78 78 100.5 185t22.5 212t-21.5 209.5t-95.5 182.5l115 192h-98l-82 -139q-92 61 -215 61q-166 0 -275 -108q-78 -78 -100.5 -184.5t-22.5 -211.5zM246 476.5q0 60.5 2 105.5 t11 89q20 99 75 152q84 84 190.5 84t180.5 -51l-394 -666q-47 63 -56 144.5t-9 142zM373 131l393 666q47 -63 56 -144t9 -141.5t-2 -106t-11 -89.5q-32 -158 -168 -214q-52 -22 -127.5 -22t-149.5 51z" />
<glyph unicode="&#xf9;" horiz-adv-x="1144" d="M186 356q0 -176 100.5 -272t272.5 -96t283 129v-117h104v987h-104v-612q0 -141 -73 -218t-206 -77t-202.5 75.5t-69.5 219.5v612h-105v-631zM325 1509l217 -301h119l-198 301h-138z" />
<glyph unicode="&#xfa;" horiz-adv-x="1144" d="M186 356q0 -176 100.5 -272t272.5 -96t283 129v-117h104v987h-104v-612q0 -141 -73 -218t-206 -77t-202.5 75.5t-69.5 219.5v612h-105v-631zM469 1208h119l217 301h-138z" />
<glyph unicode="&#xfb;" horiz-adv-x="1144" d="M186 356q0 -176 100.5 -272t272.5 -96t283 129v-117h104v987h-104v-612q0 -141 -73 -218t-206 -77t-202.5 75.5t-69.5 219.5v612h-105v-631zM258 1208h117l190 224l190 -224h117l-252 301h-110z" />
<glyph unicode="&#xfc;" horiz-adv-x="1144" d="M186 356q0 -176 100.5 -272t272.5 -96t283 129v-117h104v987h-104v-612q0 -141 -73 -218t-206 -77t-202.5 75.5t-69.5 219.5v612h-105v-631zM293 1229h118v157h-118v-157zM719 1229h118v157h-118v-157z" />
<glyph unicode="&#xfd;" horiz-adv-x="880" d="M29 987l360 -987l-80 -219q-30 -79 -56 -100q-43 -35 -124 -35h-39v-92h49q120 0 187 63q39 35 67 115l459 1255h-115l-297 -864l-297 864h-114zM346 1208h119l217 301h-138z" />
<glyph unicode="&#xfe;" horiz-adv-x="1105" d="M199 -471h104v598q66 -86 137.5 -112.5t155.5 -26.5q369 0 369 506q0 505 -369 505q-84 0 -155.5 -26.5t-137.5 -112.5v598h-104v-1929zM303 494q0 187 49 284q65 129 230 129q164 0 230 -129q48 -94 48 -285q0 -77 -9 -151t-39 -132q-67 -130 -230 -130q-164 0 -230 130 q-49 95 -49 284z" />
<glyph unicode="&#xff;" horiz-adv-x="880" d="M29 987l360 -987l-80 -219q-30 -79 -56 -100q-43 -35 -124 -35h-39v-92h49q120 0 187 63q39 35 67 115l459 1255h-115l-297 -864l-297 864h-114zM170 1229h118v157h-118v-157zM596 1229h118v157h-118v-157z" />
<glyph unicode="&#x152;" horiz-adv-x="2041" d="M168 729q0 -283 16 -361q28 -140 109 -221q159 -159 386.5 -159t377.5 186v-174h870v96h-762l2 596h641v86h-641l-2 584h756v96h-864v-174q-150 186 -389 186q-216 0 -365 -149q-91 -91 -117 -223q-18 -88 -18 -369zM279 729q0 250 14 327t36.5 121t69.5 91t119 75.5 t150 28.5q164 0 276 -112q74 -74 96 -188q17 -92 17 -343q0 -252 -14.5 -327.5t-37 -119.5t-69.5 -91t-119 -76t-149 -29q-166 0 -277 113q-74 74 -95 187q-17 93 -17 343z" />
<glyph unicode="&#x153;" horiz-adv-x="1761" d="M141 494q0 -106 22.5 -213t100.5 -185q109 -109 275 -108q115 0 208 55t140 160q100 -215 364 -215q121 0 183 28q96 45 174 123l-78 62q-63 -63 -123.5 -91t-149.5 -28q-158 0 -239.5 100.5t-81.5 288.5h686v47q0 227 -104.5 354t-290.5 127q-244 0 -340 -215 q-47 104 -139.5 159.5t-208.5 55.5q-166 0 -275 -108q-78 -78 -100.5 -184.5t-22.5 -212.5zM246 494q0 244 86 328.5t207 84.5q120 0 204 -84q79 -79 86 -241q2 -45 2 -88q0 -174 -39 -260q-42 -91 -142 -132q-52 -22 -111 -22q-121 0 -205 84q-79 79 -86 242q-2 45 -2 88z M936 555q7 125 37.5 194.5t99 113.5t154.5 44t155 -44q114 -74 132 -247q2 -26 4 -61h-582z" />
<glyph unicode="&#x178;" horiz-adv-x="1011" d="M20 1458l431 -854v-604h110v604l430 854h-119l-362 -737l-371 737h-119zM236 1618h118v157h-118v-157zM662 1618h118v157h-118v-157z" />
<glyph unicode="&#x2c6;" horiz-adv-x="1024" d="M205 1208h117l190 224l190 -224h117l-252 301h-110z" />
<glyph unicode="&#x2dc;" horiz-adv-x="1024" d="M197 1323l61 -59q47 47 71.5 57t52.5 10q39 0 93 -31.5t85.5 -46t60 -14.5t45 2t38.5 11q49 21 113 85l-61 60q-47 -47 -73 -57.5t-53 -10.5q-39 0 -93 33t-83.5 46t-60 13t-47 -2t-38.5 -11q-48 -20 -111 -85z" />
<glyph unicode="&#x2000;" horiz-adv-x="998" />
<glyph unicode="&#x2001;" horiz-adv-x="1997" />
<glyph unicode="&#x2002;" horiz-adv-x="998" />
<glyph unicode="&#x2003;" horiz-adv-x="1997" />
<glyph unicode="&#x2004;" horiz-adv-x="665" />
<glyph unicode="&#x2005;" horiz-adv-x="499" />
<glyph unicode="&#x2006;" horiz-adv-x="332" />
<glyph unicode="&#x2007;" horiz-adv-x="332" />
<glyph unicode="&#x2008;" horiz-adv-x="249" />
<glyph unicode="&#x2009;" horiz-adv-x="399" />
<glyph unicode="&#x200a;" horiz-adv-x="110" />
<glyph unicode="&#x2010;" horiz-adv-x="872" d="M168 492h537v96h-537v-96z" />
<glyph unicode="&#x2011;" horiz-adv-x="872" d="M168 492h537v96h-537v-96z" />
<glyph unicode="&#x2012;" horiz-adv-x="872" d="M168 492h537v96h-537v-96z" />
<glyph unicode="&#x2013;" d="M109 492h835v96h-835v-96z" />
<glyph unicode="&#x2014;" horiz-adv-x="1787" d="M168 492h1452v96h-1452v-96z" />
<glyph unicode="&#x2018;" horiz-adv-x="532" d="M195 1315h143v287l-143 -144v-143z" />
<glyph unicode="&#x2019;" horiz-adv-x="532" d="M195 1171l143 144v143h-143v-287z" />
<glyph unicode="&#x201a;" horiz-adv-x="532" d="M195 143v-286l143 143v143h-143z" />
<glyph unicode="&#x201c;" horiz-adv-x="851" d="M195 1315h143v287l-143 -144v-143zM514 1315h143v287l-143 -144v-143z" />
<glyph unicode="&#x201d;" horiz-adv-x="851" d="M195 1171l143 144v143h-143v-287zM514 1171l143 144v143h-143v-287z" />
<glyph unicode="&#x201e;" horiz-adv-x="851" d="M195 143v-286l143 143v143h-143zM514 143v-286l143 143v143h-143z" />
<glyph unicode="&#x2022;" horiz-adv-x="1118" d="M225 684q0 -135 99 -236q97 -98 235 -98q139 0 236 98q98 100 98 236t-98 236q-97 98 -236 98q-138 0 -235 -98q-99 -101 -99 -236z" />
<glyph unicode="&#x2026;" horiz-adv-x="1482" d="M195 0h151v152h-151v-152zM666 0h151v152h-151v-152zM1137 0h151v152h-151v-152z" />
<glyph unicode="&#x202f;" horiz-adv-x="399" />
<glyph unicode="&#x2039;" horiz-adv-x="655" d="M86 543l401 -402v135l-266 267l266 266v135z" />
<glyph unicode="&#x203a;" horiz-adv-x="655" d="M168 141l401 402l-401 401v-135l266 -266l-266 -267v-135z" />
<glyph unicode="&#x205f;" horiz-adv-x="499" />
<glyph unicode="&#x2122;" horiz-adv-x="1656" d="M66 1374h249v-790h91v790h249v84h-589v-84zM817 584h90v671l226 -446h94l225 446v-671h90v874h-90l-272 -553l-273 553h-90v-874z" />
<glyph unicode="&#xe000;" horiz-adv-x="983" d="M0 0v983h983v-983h-983z" />
<glyph unicode="&#xfb01;" horiz-adv-x="1120" d="M94 909h135v-909h105v909h223v78h-223v215q0 164 151 164h72v92h-90q-117 0 -177.5 -72.5t-60.5 -185.5v-213h-135v-78zM805 1329h129v129h-129v-129zM817 0h105v987h-105v-987z" />
<glyph unicode="&#xfb02;" horiz-adv-x="1200" d="M94 909h135v-909h105v909h223v78h-223v215q0 164 151 164h72v92h-90q-117 0 -177.5 -72.5t-60.5 -185.5v-213h-135v-78zM807 256q0 -117 58.5 -186.5t178.5 -69.5h91v92h-72q-88 0 -120 41t-32 125v1200h-104v-1202z" />
</font>
</defs>
</svg>
