<?xml version="1.0" standalone="no"?>
<!DOCTYPE svg PUBLIC "-//W3C//DTD SVG 1.1//EN" "http://www.w3.org/Graphics/SVG/1.1/DTD/svg11.dtd" >
<svg xmlns="http://www.w3.org/2000/svg">
<metadata></metadata>
<defs>
<font id="DINMedium" horiz-adv-x="1091" >
<font-face units-per-em="2048" ascent="1638" descent="-410" />
<missing-glyph horiz-adv-x="491" />
<glyph unicode="&#xfb01;" horiz-adv-x="1193" d="M76 860v160h119v160q0 120 69 199q78 89 215 89h129v-178h-92q-113 0 -113 -121v-149h205v-160h-205v-860h-208v860h-119zM811 1278v186h223v-186h-223zM817 0v1020h209v-1020h-209z" />
<glyph unicode="&#xfb02;" horiz-adv-x="1282" d="M76 860v160h119v160q0 120 69 199q78 89 215 89h129v-178h-92q-113 0 -113 -121v-149h205v-160h-205v-860h-208v860h-119zM813 287v1171h209v-1159q0 -59 24.5 -90t88.5 -31h92v-178h-129q-141 0 -218 86q-67 76 -67 201z" />
<glyph horiz-adv-x="0" />
<glyph horiz-adv-x="2048" />
<glyph unicode="&#xd;" horiz-adv-x="491" />
<glyph unicode=" "  horiz-adv-x="491" />
<glyph unicode="&#x09;" horiz-adv-x="491" />
<glyph unicode="&#xa0;" horiz-adv-x="491" />
<glyph unicode="!" horiz-adv-x="679" d="M248 1458h254l-45 -1024h-164zM260 0v223h229v-223h-229z" />
<glyph unicode="&#x22;" horiz-adv-x="909" d="M160 1067v391h207v-391h-207zM543 1067v391h207v-391h-207z" />
<glyph unicode="#" horiz-adv-x="1376" d="M139 426v192h193l41 254h-166v193h194l64 401h219l-63 -401h278l64 401h217l-64 -401h160v-193h-189l-40 -254h161v-192h-192l-68 -426h-217l68 426h-281l-65 -426h-220l68 426h-162zM549 618h280l39 254h-278z" />
<glyph unicode="$" horiz-adv-x="1245" d="M61 180l148 146q132 -132 338 -140v455l-53 6q-167 19 -275.5 119t-107.5 276q0 176 109.5 291t307.5 133v185h168v-183q123 -8 215.5 -47t175.5 -116l-141 -140q-102 98 -268 111v-442l70 -11q102 -16 164 -41q227 -95 227 -365q0 -271 -263 -381q-81 -34 -180 -42v-227 h-168v221q-147 6 -257.5 50t-209.5 142zM326 1051q0 -85 55 -136q61 -54 166 -67v426q-109 -10 -165 -71.5t-56 -151.5zM678 190q115 10 178.5 67t63.5 155t-58 149q-41 37 -86 46t-98 18v-435z" />
<glyph unicode="%" horiz-adv-x="1724" d="M119 985v207q0 128 84 206q81 75 203 75q121 0 202 -75q84 -78 84 -206v-207q0 -128 -84 -206q-78 -72 -202 -72q-125 0 -203 72q-84 78 -84 206zM276 991q0 -145 129.5 -145t129.5 145v195q0 147 -129 147q-130 0 -130 -147v-195zM434 0l688 1458h166l-686 -1458h-168z M1032 266v207q0 128 84 206q81 75 203 75t203 -75q84 -78 84 -206v-207q0 -129 -84 -206q-82 -74 -203 -74t-203 74q-84 77 -84 206zM1190 272q0 -147 129 -147t129 147v195q0 147 -129 147t-129 -147v-195z" />
<glyph unicode="&#x26;" horiz-adv-x="1495" d="M139 422q0 193 183 336q53 41 106 76q-106 123 -138 218q-14 44 -14 104.5t26 119.5t72 102q98 92 259 92q154 0 251 -93q95 -91 95 -232q0 -153 -156 -258q-20 -16 -38.5 -28.5t-37 -24t-30.5 -21.5l307 -367q74 103 78 293h201q-8 -288 -146 -448l244 -291h-268 l-119 143q-87 -69 -140 -96q-116 -59 -264 -59q-229 0 -350 117.5t-121 316.5zM346 417q0 -102 75 -170.5t189 -68.5q74 0 140.5 23.5t138.5 89.5l-346 411q-98 -70 -132 -108q-65 -75 -65 -177zM489 1153q0 -53 29 -98t84 -111q18 10 36.5 23.5t47.5 33t60.5 55.5t31.5 92 t-40 98t-106.5 42t-104.5 -41t-38 -94z" />
<glyph unicode="'" horiz-adv-x="526" d="M160 1067v391h207v-391h-207z" />
<glyph unicode="(" horiz-adv-x="649" d="M176 240v979q0 61 7 120.5t39 115.5t75 101.5t92 94.5l141 -142l-64 -65q-28 -27 -54.5 -78t-26.5 -160v-954q0 -111 27 -161t54.5 -77.5t63.5 -64.5l-141 -142q-49 49 -92 94.5t-75 101.5t-39 115.5t-7 121.5z" />
<glyph unicode=")" horiz-adv-x="649" d="M119 -49q37 37 63.5 64.5t53 77.5t26.5 159v954q0 106 -27 157.5t-53 79t-63 64.5l143 144q49 -49 91 -94.5t74 -101.5q48 -84 48 -236v-979q0 -153 -49 -238q-31 -55 -73 -100t-91 -95z" />
<glyph unicode="*" horiz-adv-x="993" d="M125 954l235 125l-235 127l76 133l227 -141l-8 266h153l-8 -266l228 141l75 -133l-235 -127l235 -125l-75 -133l-228 142l8 -269h-153l8 269l-227 -142z" />
<glyph unicode="+" d="M104 461v194h345v342h194v-342h344v-194h-344v-344h-194v344h-345z" />
<glyph unicode="," horiz-adv-x="557" d="M160 238h237v-361l-237 -194v555z" />
<glyph unicode="-" horiz-adv-x="872" d="M137 471v195h598v-195h-598z" />
<glyph unicode="." horiz-adv-x="569" d="M160 0v250h250v-250h-250z" />
<glyph unicode="/" horiz-adv-x="778" d="M0 -152l584 1762h200l-583 -1762h-201z" />
<glyph unicode="0" d="M125 406v647q0 191 123 306q118 111 297 111q178 0 297 -111q125 -118 125 -306v-647q0 -188 -125 -306q-118 -112 -297 -112q-180 0 -297 112q-123 116 -123 306zM334 412q0 -106 55 -172t156 -66q100 0 156.5 65.5t56.5 172.5v635q0 106 -56.5 171.5t-156.5 65.5 t-155.5 -65.5t-55.5 -171.5v-635z" />
<glyph unicode="1" d="M233 981v231l285 246h209v-1458h-209v1231z" />
<glyph unicode="2" d="M129 0v186l561 682q78 97 78 195t-55.5 159.5t-157.5 61.5q-144 0 -197 -121q-18 -43 -18 -104h-209q0 185 120 299q118 112 304 112q191 0 305 -110q117 -113 117 -299q0 -96 -35 -165t-102 -151l-457 -559h594v-186h-848z" />
<glyph unicode="3" d="M86 395h209q4 -105 77 -169q60 -52 161 -52t169 62.5t68 176.5t-60.5 178t-183.5 64h-34v183h34q115 0 168.5 60t53.5 166t-62.5 163t-156 57t-150.5 -55t-66 -154h-209q8 181 132 291q120 107 296 107q185 0 304 -114q120 -114 120 -294q0 -224 -182 -311 q205 -89 205 -344q0 -202 -133 -318q-120 -106 -314 -106q-187 0 -306 97q-136 110 -140 312z" />
<glyph unicode="4" d="M72 219v195l514 1044h225l-512 -1044h363v340h202v-340h156v-195h-156v-219h-202v219h-590z" />
<glyph unicode="5" d="M129 377h209q25 -203 213 -203q94 0 146 52t63.5 120t11.5 137.5t-9 125t-33 95.5q-54 89 -157.5 89t-153.5 -39t-67 -92h-190v796h786v-186h-598v-385q80 84 242 84q231 0 328 -183q49 -89 55 -169.5t6 -164.5t-21.5 -179t-101.5 -175q-114 -114 -307 -114 q-104 0 -184 32.5t-133 85.5q-91 91 -105 273z" />
<glyph unicode="6" d="M115 424q0 90 30.5 176t77.5 182l332 676h223l-313 -627q56 23 132.5 23t146 -29.5t122.5 -84.5q111 -118 111 -308q0 -198 -121 -322q-118 -122 -309 -122q-195 0 -311 116q-121 121 -121 320zM324 429q0 -118 61 -186.5t160 -68.5q98 0 160.5 68.5t62.5 181.5 t-59.5 184.5t-160.5 71.5t-162.5 -66.5t-61.5 -184.5z" />
<glyph unicode="7" d="M129 1042v416h868v-186l-487 -1272h-225l489 1272h-444v-230h-201z" />
<glyph unicode="8" d="M96 412q0 223 201 342q-72 43 -124 119.5t-52 181t32.5 178.5t90.5 127q119 110 301 110q180 0 301 -110q125 -113 125 -293q0 -117 -52.5 -193.5t-123.5 -119.5q200 -118 200 -342q0 -194 -131 -312q-124 -112 -319 -112q-196 0 -319 112q-130 120 -130 312zM305 416 q0 -102 69 -172q68 -70 171 -70q99 0 170 70q69 67 69 172q0 103 -69 172q-71 71 -170 71q-102 0 -171 -71t-69 -172zM330 1060q0 -97 59.5 -158.5t155.5 -61.5t156.5 61.5t60.5 158.5t-60.5 160.5t-156.5 63.5t-155.5 -63.5t-59.5 -160.5z" />
<glyph unicode="9" d="M115 1026q0 200 121 322q119 122 309 122q196 0 311 -116q121 -123 121 -320q0 -90 -31 -176t-78 -182l-331 -676h-224l314 627q-56 -23 -133.5 -23t-146 30t-121.5 85q-111 117 -111 307zM324 1034q0 -113 58 -184.5t159.5 -71.5t164 66.5t62.5 184.5t-62.5 186.5 t-160.5 68.5t-159.5 -68.5t-61.5 -181.5z" />
<glyph unicode=":" horiz-adv-x="620" d="M213 0v250h248v-250h-248zM213 584v250h248v-250h-248z" />
<glyph unicode=";" horiz-adv-x="620" d="M213 584v250h248v-250h-248zM217 238h238v-361l-238 -194v555z" />
<glyph unicode="&#x3c;" horiz-adv-x="2103" d="M106 567l803 803h269l-707 -702h1524v-199h-1524l707 -702h-269z" />
<glyph unicode="=" d="M104 272v195h883v-195h-883zM104 670v194h883v-194h-883z" />
<glyph unicode="&#x3e;" horiz-adv-x="2103" d="M106 469v199h1526l-706 702h268l803 -803l-803 -800h-268l706 702h-1526z" />
<glyph unicode="?" horiz-adv-x="1046" d="M145 1077q0 173 117 284q115 109 291 109q172 0 289 -105q55 -50 88 -123t33 -155t-29 -142t-70 -118l-157 -221q-37 -53 -37 -110v-62h-209v72q0 63 16.5 108t52.5 95l160 215q64 82 64 161.5t-55.5 139t-148.5 59.5t-144.5 -61.5t-51.5 -145.5h-209zM449 0v223h231 v-223h-231z" />
<glyph unicode="@" horiz-adv-x="1507" d="M131 334v651q0 239 121 358q121 121 352 121h299q231 0 350 -121q123 -123 123 -358v-989l-196 4v102q-49 -59 -109.5 -87.5t-147.5 -28.5q-171 0 -272 114q-54 61 -70 130q-22 95 -22 239.5t16.5 233t66.5 147.5q104 123 276 123q157 0 258 -115v125q0 141 -76 221 q-76 76 -217 76h-258q-139 0 -215 -76q-47 -47 -61.5 -97t-14.5 -124v-639q0 -83 16 -121q25 -55 86 -104l-143 -144q-92 76 -119 132q-43 91 -43 227zM760 479q0 -149 30.5 -207.5t70.5 -83t104.5 -24.5t105.5 24.5t65 67.5q40 74 40 223q0 152 -40 226q-51 92 -169 92 q-173 0 -199 -193q-8 -59 -8 -125z" />
<glyph unicode="A" horiz-adv-x="1280" d="M16 0l535 1458h178l535 -1458h-236l-100 293h-576l-100 -293h-236zM418 481h448l-221 647z" />
<glyph unicode="B" horiz-adv-x="1357" d="M190 0v1458h568q205 0 322.5 -106.5t117.5 -292.5q0 -109 -62 -200q-54 -79 -135 -109q88 -33 152 -117q68 -90 68 -236q0 -85 -33 -162t-92 -129q-117 -106 -316 -106h-590zM412 199h348q117 0 178 62.5t61 160.5t-61 159.5t-178 61.5h-348v-444zM412 842h327 q106 0 172 53.5t66 155.5t-65.5 155.5t-172.5 53.5h-327v-418z" />
<glyph unicode="C" horiz-adv-x="1286" d="M137 729q0 254 15 334q31 158 117 243q166 164 381 164t354 -114.5t178 -333.5h-226q-27 111 -99.5 180.5t-194.5 69.5q-132 0 -216 -88q-54 -58 -66 -127q-22 -120 -22 -328t13.5 -283t31 -109t50 -69t88 -58.5t121.5 -23.5q123 0 196.5 70t99.5 180h224 q-35 -212 -180 -334q-136 -114 -340 -114q-228 0 -383 155q-96 96 -125 242q-17 91 -17 344z" />
<glyph unicode="D" horiz-adv-x="1363" d="M190 0v1458h512q242 0 377 -137q143 -143 147 -424q1 -78 1 -158q0 -231 -13 -315q-49 -303 -301 -390q-96 -34 -211 -34h-512zM412 199h268q158 0 248 98q57 63 67.5 176.5t10.5 265.5t-10.5 255.5t-67.5 166.5q-90 98 -248 99h-268v-1061z" />
<glyph unicode="E" horiz-adv-x="1234" d="M190 0v1458h932v-198h-710v-426h606v-197h-606v-438h710v-199h-932z" />
<glyph unicode="F" horiz-adv-x="1198" d="M190 0v1458h932v-198h-710v-445h606v-199h-606v-616h-222z" />
<glyph unicode="G" horiz-adv-x="1329" d="M137 729q0 254 15 334q31 158 117 243q166 164 393 164q222 0 366 -132q130 -121 164 -320h-223q-29 121 -107 187.5t-200 66.5q-130 0 -216 -90q-54 -58 -66 -127q-22 -120 -22 -326q0 -208 13.5 -283t31 -109t50 -69t88 -58.5t124.5 -23.5q144 0 234 103q74 85 74 229 v82h-311v188h532v-223q0 -141 -29.5 -237.5t-107.5 -179.5q-152 -160 -395 -160q-228 0 -383 155q-96 96 -125 242q-17 91 -17 344z" />
<glyph unicode="H" horiz-adv-x="1415" d="M190 0v1458h222v-622h592v622h221v-1458h-221v637h-592v-637h-222z" />
<glyph unicode="I" horiz-adv-x="602" d="M190 0v1458h222v-1458h-222z" />
<glyph unicode="J" horiz-adv-x="1036" d="M27 129l147 145q39 -39 83 -63.5t124 -24.5q123 0 193.5 74t70.5 217v981h221v-997q0 -224 -142 -351q-138 -122 -343 -122q-113 0 -196 32.5t-158 108.5z" />
<glyph unicode="K" horiz-adv-x="1347" d="M190 0v1458h222v-733l596 733h270l-473 -571l522 -887h-260l-410 719l-245 -295v-424h-222z" />
<glyph unicode="L" horiz-adv-x="1175" d="M190 0v1458h222v-1259h702v-199h-924z" />
<glyph unicode="M" horiz-adv-x="1665" d="M190 0v1458h222l426 -907l417 907h222v-1458h-222v975l-335 -711h-164l-344 711v-975h-222z" />
<glyph unicode="N" horiz-adv-x="1478" d="M190 0v1458h203l674 -1024v1024h221v-1458h-203l-673 1026v-1026h-222z" />
<glyph unicode="O" horiz-adv-x="1323" d="M137 729q0 254 15 334q31 158 117 243q166 164 393 164q230 0 385 -155q96 -96 123 -241q16 -92 16 -345q0 -252 -14 -333q-28 -154 -115 -242q-164 -166 -395 -166q-228 0 -383 155q-96 96 -125 242q-17 91 -17 344zM358 729q0 -217 12.5 -286.5t30 -103.5t50 -69 t89 -59.5t122.5 -24.5q129 0 217 90q54 58 66 127q20 109 20 326t-12.5 286.5t-30 103.5t-50 69t-89 59.5t-121.5 24.5q-132 0 -218 -90q-54 -58 -66 -127q-20 -109 -20 -326z" />
<glyph unicode="P" horiz-adv-x="1288" d="M190 0v1458h553q209 0 341 -126q126 -120 126 -317q0 -95 -32.5 -176t-93.5 -139q-133 -127 -341 -127h-331v-573h-222zM412 774h319q117 0 187.5 62.5t70.5 179.5t-70.5 180.5t-187.5 63.5h-319v-486z" />
<glyph unicode="Q" horiz-adv-x="1323" d="M137 729q0 254 15 334q31 158 117 243q166 164 393 164q230 0 385 -155q96 -96 123 -241q16 -92 16 -264.5t-1 -249.5t-11 -140q-20 -136 -82 -221l143 -142l-123 -123l-145 146q-129 -92 -305 -92q-228 0 -383 155q-96 96 -125 242q-17 91 -17 344zM358 729 q0 -217 12.5 -286.5t30 -103.5t50 -69t89 -59.5t131.5 -24.5t140 47l-154 154l123 123l142 -141q29 55 36 137t7 208t-3.5 198.5t-12.5 122.5q-16 86 -62 137q-92 100 -225 100q-132 0 -218 -90q-54 -58 -66 -127q-20 -109 -20 -326z" />
<glyph unicode="R" horiz-adv-x="1341" d="M190 0v1458h566q204 0 330 -120q122 -116 122 -290t-84 -271t-206 -132l335 -645h-258l-307 614h-276v-614h-222zM412 803h327q111 0 179.5 59t68.5 168t-68.5 169.5t-179.5 60.5h-327v-457z" />
<glyph unicode="S" horiz-adv-x="1208" d="M61 180l148 146q80 -80 170 -110t218 -30t207 58.5t79 162t-58 154.5q-29 27 -61.5 39t-97.5 23l-172 24q-178 25 -280.5 121t-102.5 274q0 190 129 310q129 118 358 118q145 0 251.5 -38.5t201.5 -126.5l-142 -140q-68 66 -146.5 89.5t-189 23.5t-179 -64.5 t-68.5 -162.5q0 -85 55 -136q57 -51 164 -67l166 -25q102 -16 163 -41q228 -95 228 -369q0 -195 -148 -313q-140 -112 -376 -112q-166 0 -289 43t-228 149z" />
<glyph unicode="T" horiz-adv-x="1146" d="M61 1260v198h1024v-198h-401v-1260h-221v1260h-402z" />
<glyph unicode="U" horiz-adv-x="1382" d="M168 492v966h221v-956q0 -147 82 -231.5t219 -84.5t220 84t83 232v956h221v-966q0 -226 -150 -365t-374 -139q-226 0 -372 139q-150 142 -150 365z" />
<glyph unicode="V" horiz-adv-x="1155" d="M10 1458h230l335 -1061l336 1061h234l-483 -1458h-173z" />
<glyph unicode="W" horiz-adv-x="1783" d="M23 1458h233l254 -1042l293 1042h178l293 -1042l254 1042h233l-381 -1458h-192l-297 1022l-295 -1022h-193z" />
<glyph unicode="X" horiz-adv-x="1183" d="M20 0l451 748l-422 710h254l287 -522l289 522h254l-422 -710l452 -748h-256l-317 559l-316 -559h-254z" />
<glyph unicode="Y" horiz-adv-x="1114" d="M10 1458h242l305 -641l305 641h242l-436 -858v-600h-222v600z" />
<glyph unicode="Z" horiz-adv-x="1130" d="M98 0v190l674 1070h-645v198h905v-180l-678 -1079h678v-199h-934z" />
<glyph unicode="[" horiz-adv-x="710" d="M176 -152v1762h447v-187h-238v-1388h238v-187h-447z" />
<glyph unicode="\" horiz-adv-x="778" d="M0 1593h201l577 -1745h-200z" />
<glyph unicode="]" horiz-adv-x="710" d="M88 33h242v1392h-242v185h447v-1762h-447v185z" />
<glyph unicode="^" horiz-adv-x="1169" d="M137 821l352 652h191l350 -652h-217l-229 424l-230 -424h-217z" />
<glyph unicode="_" horiz-adv-x="1169" d="M0 -209h1169v-143h-1169v143z" />
<glyph unicode="`" horiz-adv-x="1024" d="M233 1559h232l153 -332h-157z" />
<glyph unicode="a" horiz-adv-x="1085" d="M88 302q0 134 89 218t269 84h275v74q0 98 -52.5 146t-156.5 48t-153.5 -22.5t-92.5 -77.5l-137 129q74 86 159 118t214 32q428 0 428 -357v-694h-205v94q-57 -57 -118.5 -81.5t-158.5 -24.5q-184 0 -278 94q-82 86 -82 220zM291 309q0 -147 190 -147q59 0 106.5 9 t90.5 52t43 152v84h-244q-92 0 -139 -39t-47 -111z" />
<glyph unicode="b" horiz-adv-x="1132" d="M166 0v1458h209v-524q57 68 122.5 92.5t146.5 24.5q290 0 354 -291q18 -86 18 -240t-16 -226q-30 -143 -101 -214q-92 -92 -254 -92q-86 0 -150.5 25.5t-123.5 97.5v-111h-205zM375 520q0 -165 30.5 -228t72.5 -90.5t113 -27.5t114 27.5t65 76.5q37 78 37 242 q0 166 -29.5 227.5t-72.5 89t-114 27.5t-113 -27.5t-66 -74.5q-37 -75 -37 -242z" />
<glyph unicode="c" horiz-adv-x="993" d="M113 520q0 270 145 410q124 121 317 121q109 0 189 -34t154 -112l-144 -139q-49 53 -93 75.5t-106 22.5q-123 0 -192 -92q-35 -43 -48 -101.5t-13 -150.5q0 -179 61 -254q70 -92 192 -92q61 0 105.5 22.5t93.5 75.5l144 -137q-74 -78 -154 -112.5t-178.5 -34.5t-181 28.5 t-146.5 91.5q-145 143 -145 412z" />
<glyph unicode="d" horiz-adv-x="1132" d="M117 520q0 153 15 225q30 142 101 213q93 93 252 93q84 0 149.5 -25t123.5 -92v524h209v-1458h-205v111q-59 -72 -124 -97.5t-147 -25.5q-351 0 -371 412q-3 61 -3 120zM326 520q0 -165 30.5 -228t72.5 -90.5t113 -27.5t113.5 27.5t64.5 76.5q38 80 38 242 q0 164 -30 226.5t-73 90t-113.5 27.5t-112.5 -27.5t-65 -74.5q-38 -75 -38 -242z" />
<glyph unicode="e" horiz-adv-x="1103" d="M113 507.5q0 266.5 119.5 405t320.5 138.5q204 0 325 -139q115 -134 115 -361v-92h-674q0 -135 68 -213t197 -78q88 0 142 25.5t110 80.5l133 -124q-85 -85 -149 -113q-109 -49 -223.5 -49t-200 27.5t-148.5 90.5q-135 135 -135 401.5zM319 604h467q-4 90 -28.5 145 t-77.5 91.5t-127 36.5t-128 -36t-74.5 -83.5t-24.5 -77t-7 -76.5z" />
<glyph unicode="f" horiz-adv-x="671" d="M80 860v160h119v160q0 120 69 199q78 89 215 89h131v-178h-92q-114 0 -114 -121v-149h206v-160h-206v-860h-209v860h-119z" />
<glyph unicode="g" horiz-adv-x="1124" d="M117 539q0 133 20.5 239.5t103 189.5t242.5 83q84 0 148.5 -26t124.5 -97v110h202v-1032q0 -194 -118 -314q-122 -124 -326 -124q-119 0 -202 30.5t-165 106.5l134 133q49 -47 98 -69.5t121 -22.5t118 21.5t76 58.5q56 71 56 184v133q-57 -68 -123 -93t-145 -25 q-157 0 -241 84t-104 190.5t-20 239.5zM326 539q0 -149 28.5 -210t70.5 -88.5t113 -27.5t112.5 27.5t63.5 73.5q36 73 36 225q0 151 -29 210.5t-71 87t-112.5 27.5t-112.5 -27.5t-63 -73.5q-36 -76 -36 -224z" />
<glyph unicode="h" horiz-adv-x="1159" d="M166 0v1458h209v-524q105 117 268 117q169 0 267 -106q94 -102 94 -275v-670h-209v637q0 119 -60.5 173t-148.5 54t-149.5 -55t-61.5 -172v-637h-209z" />
<glyph unicode="i" horiz-adv-x="540" d="M160 1243v221h221v-221h-221zM166 0v1038h209v-1038h-209z" />
<glyph unicode="j" horiz-adv-x="540" d="M-39 -246h92q63 0 88 31t25 90v1163h209v-1175q0 -195 -157 -263q-54 -24 -128 -24h-129v178zM160 1243v221h221v-221h-221z" />
<glyph unicode="k" horiz-adv-x="1122" d="M166 0v1458h209v-899l403 479h254l-360 -407l405 -631h-258l-291 479l-153 -174v-305h-209z" />
<glyph unicode="l" horiz-adv-x="636" d="M160 287v1171h209v-1159q0 -59 24.5 -90t87.5 -31h92v-178h-129q-140 0 -216 86q-68 76 -68 201z" />
<glyph unicode="m" horiz-adv-x="1796" d="M166 0v1038h205v-104q109 117 276 117q197 0 295 -152q125 152 326 152q163 0 262 -95q110 -110 110 -292v-664h-208v633q0 121 -60.5 176t-148.5 55q-148 0 -198 -124q-17 -42 -17 -97v-643h-209v633q0 121 -60.5 176t-148.5 55t-151.5 -56t-63.5 -175v-633h-209z" />
<glyph unicode="n" horiz-adv-x="1163" d="M166 0v1038h205v-104q105 117 276 117q157 0 256 -95q105 -105 105 -292v-664h-209v633q0 121 -60.5 176t-148.5 55t-151.5 -56t-63.5 -175v-633h-209z" />
<glyph unicode="o" horiz-adv-x="1099" d="M117 519q0 132 24.5 231.5t86.5 165.5q130 135 321 135q193 0 311 -123q74 -78 98.5 -177.5t24.5 -231.5t-24.5 -231.5t-86.5 -164.5q-130 -135 -323 -135t-309 123q-74 78 -98.5 177t-24.5 231zM326 520q0 -86 12 -161.5t66 -129.5q54 -55 146 -55h1q90 0 144 54 t66.5 130t12.5 162t-12 162t-65.5 129t-146.5 53t-146.5 -53t-65.5 -129t-12 -162z" />
<glyph unicode="p" horiz-adv-x="1132" d="M166 -420v1458h205v-110q59 72 123.5 97.5t146.5 25.5q352 0 372 -411q3 -61 3 -120q0 -154 -16 -226q-30 -143 -101 -214q-92 -92 -252 -92q-84 0 -149.5 25.5t-122.5 92.5v-526h-209zM375 520q0 -165 30.5 -228t72.5 -90.5t113 -27.5t114 27.5t65 76.5q37 78 37 242 q0 166 -29.5 227.5t-72.5 89t-114 27.5t-113 -27.5t-66 -74.5q-37 -75 -37 -242z" />
<glyph unicode="q" horiz-adv-x="1132" d="M117 520q0 153 15 225q30 142 101 213q93 93 254 93q86 0 150.5 -26t124.5 -97v110h205v-1458h-209v526q-57 -68 -123 -93t-147 -25q-348 0 -368 412q-3 61 -3 120zM326 520q0 -165 30.5 -228t72.5 -90.5t113 -27.5t113.5 27.5t64.5 76.5q38 80 38 242q0 164 -30 226.5 t-73 90t-113.5 27.5t-112.5 -27.5t-65 -74.5q-38 -75 -38 -242z" />
<glyph unicode="r" horiz-adv-x="899" d="M166 0v1038h205v-112q41 55 114.5 90t155.5 35t141.5 -22.5t112.5 -76.5l-158 -157q-35 35 -68.5 52t-86.5 17q-86 0 -146.5 -62.5t-60.5 -170.5v-631h-209z" />
<glyph unicode="s" horiz-adv-x="1021" d="M66 137l137 137q103 -108 299 -108q96 0 161.5 35t65.5 98t-31.5 95t-107.5 38l-166 14q-307 25 -307 287q0 149 115 235q111 83 276 83q251 0 385 -117l-131 -133q-91 76 -256 76q-94 0 -141.5 -37t-47.5 -90.5t30 -85t114 -39.5l164 -15q309 -25 309 -293 q0 -155 -123 -246q-113 -83 -309 -83q-127 0 -235.5 29.5t-200.5 119.5z" />
<glyph unicode="t" horiz-adv-x="700" d="M72 860v160h118v315h209v-315h201v-160h-201v-561q0 -121 115 -121h86v-178h-125q-137 0 -215 89q-70 80 -70 200v571h-118z" />
<glyph unicode="u" horiz-adv-x="1163" d="M156 375v663h209v-632q0 -121 60 -176.5t148 -55.5q149 0 198 128q17 44 17 104v632h209v-1038h-204v104q-104 -116 -277 -116q-158 0 -256 94q-104 104 -104 293z" />
<glyph unicode="v" horiz-adv-x="964" d="M16 1038h222l245 -731l244 731h221l-381 -1038h-170z" />
<glyph unicode="w" horiz-adv-x="1521" d="M16 1038h222l200 -731l242 731h162l239 -731l201 731h223l-323 -1038h-178l-244 725l-242 -725h-180z" />
<glyph unicode="x" horiz-adv-x="1030" d="M45 0l356 530l-342 508h252l205 -338l203 338h252l-340 -508l354 -530h-252l-217 354l-219 -354h-252z" />
<glyph unicode="y" horiz-adv-x="958" d="M16 1038h222l247 -731l242 731h223l-458 -1245q-54 -153 -174 -189q-56 -16 -115 -16h-84v189h53q66 0 96.5 23.5t53.5 86.5l57 162z" />
<glyph unicode="z" horiz-adv-x="960" d="M88 0v166l516 686h-487v186h745v-166l-520 -686h520v-186h-774z" />
<glyph unicode="{" horiz-adv-x="833" d="M92 637v184h76q59 0 97 38t38 124v342q0 285 293 285h145v-187h-79q-91 0 -119 -28q-31 -31 -31 -131v-330q0 -126 -86 -180q-25 -15 -49 -25q135 -54 135 -205v-329q0 -101 31 -132q28 -28 119 -28h79v-187h-145q-149 0 -219 70q-74 74 -74 215v342q0 86 -37 123 q-39 39 -98 39h-76z" />
<glyph unicode="|" horiz-adv-x="692" d="M242 -152v1762h209v-1762h-209z" />
<glyph unicode="}" horiz-adv-x="833" d="M92 35h80q89 0 119 28q31 31 31 132v329q0 150 137 205q-137 55 -137 205v330q0 98 -31 131q-28 28 -119 28h-80v187h146q149 0 219 -70q41 -41 57 -91t16 -124v-342q0 -86 37 -123q39 -39 101 -39h73v-184h-73q-60 0 -99 -38t-39 -124v-342q0 -74 -16 -124t-54 -88 q-73 -73 -222 -73h-146v187z" />
<glyph unicode="~" horiz-adv-x="1175" d="M88 571q91 91 141 118q80 42 149.5 42t122 -18.5t105.5 -44.5q107 -54 174 -54t122 44q24 18 52 47l133 -132q-91 -91 -142 -117q-81 -42 -150.5 -42t-123 18.5t-106.5 45.5q-105 52 -172 52q-43 0 -80 -16t-94 -74z" />
<glyph unicode="&#xa1;" horiz-adv-x="679" d="M178 -420l45 1024h164l45 -1024h-254zM190 815v223h230v-223h-230z" />
<glyph unicode="&#xa2;" horiz-adv-x="1019" d="M113 750q0 220 105 361q96 129 269 161v186h164v-184q88 -10 155.5 -46t133.5 -106l-139 -135q-76 84 -168 98v-671q92 14 168 98l139 -135q-66 -70 -133.5 -105.5t-155.5 -46.5v-225h-164v227q-169 29 -269 161q-105 140 -105 362zM322 751q0 -167 56 -243t128 -90v663 q-70 -14 -111 -69.5t-57 -112.5t-16 -148z" />
<glyph unicode="&#xa3;" horiz-adv-x="1155" d="M88 641v160h127v196q0 220 143 351q135 122 344 122q113 0 196 -32.5t159 -108.5l-148 -145q-39 39 -83 63.5t-124 24.5q-123 0 -193.5 -74t-70.5 -217v-180h264v-160h-264v-442h619v-199h-842v641h-127z" />
<glyph unicode="&#xa4;" horiz-adv-x="1361" d="M139 166l150 151q-78 112 -78 254t78 254l-150 150l137 137l150 -149q111 76 254 75q143 0 254 -75l151 149l138 -137l-152 -150q78 -112 78 -254q0 -140 -78 -254l152 -151l-138 -137l-151 151q-112 -78 -254 -78t-254 78l-150 -151zM401 571q0 -116 81 -197t198 -81 q118 0 198 81q80 82 80 197q0 114 -80 196q-80 81 -198 81q-117 0 -198 -81t-81 -196z" />
<glyph unicode="&#xa5;" horiz-adv-x="1114" d="M10 1458h242l307 -643l303 643h240l-299 -594h178v-159h-260l-53 -105v-106h313v-160h-313v-334h-222v334h-313v160h313v106l-53 105h-260v159h178z" />
<glyph unicode="&#xa6;" horiz-adv-x="704" d="M242 -152v717h209v-717h-209zM242 893v717h209v-717h-209z" />
<glyph unicode="&#xa7;" horiz-adv-x="1112" d="M152 530q0 166 128 272q35 29 70 48q-76 37 -124 99.5t-48 154.5t25.5 154.5t74.5 109.5q108 102 281 102q175 0 281 -95q100 -90 104 -242h-201q-11 155 -184 155q-86 0 -133 -41t-47 -111q0 -124 153 -171l144 -43q291 -89 291 -381q0 -161 -129 -271q-35 -30 -70 -49 q180 -81 180 -289q0 -170 -118 -269q-112 -95 -273 -95q-162 0 -271 84q-122 95 -126 264h205q6 -76 56 -119t137 -43t136 46t49 114q0 144 -159 192l-144 44q-288 88 -288 380zM356 535q0 -102 55.5 -160.5t146.5 -58.5q129 -1 186 121q18 37 18 98q0 149 -122 205 q-34 16 -81 16q-92 0 -145 -58q-58 -58 -58 -163z" />
<glyph unicode="&#xa8;" horiz-adv-x="1024" d="M197 1237v221h188v-221h-188zM639 1237v221h188v-221h-188z" />
<glyph unicode="&#xa9;" horiz-adv-x="1765" d="M141 729q0 154 58.5 289t159 235.5t235.5 158.5t289 58t289 -58t235 -158.5t158.5 -235.5t58.5 -289t-58.5 -289t-158.5 -235.5t-235.5 -158.5t-288.5 -58q-154 0 -289 58t-235.5 158.5t-159 235.5t-58.5 289zM291 729q0 -252 172 -428q170 -174 420 -174q123 0 231.5 46 t187.5 128q173 178 173 428t-173 428q-79 82 -187.5 128t-231.5 46q-250 0 -420 -174q-172 -176 -172 -428zM528 729q0 185 101 299q98 111 266 111q86 0 147.5 -27t120.5 -80l-94 -96q-47 41 -84 56.5t-90 15.5q-117 0 -169 -79t-52 -200t52 -199.5t169 -78.5q53 0 90 15 t84 56l94 -96q-59 -53 -120.5 -80t-146.5 -27t-152.5 29t-114.5 82q-101 114 -101 299z" />
<glyph unicode="&#xaa;" horiz-adv-x="925" d="M106 872q0 104 72 172t213 68h215v57q0 78 -41 115t-123 37t-119.5 -17.5t-72.5 -62.5l-113 107q59 70 127 94t172 24q340 0 340 -284v-553h-166v73q-45 -45 -93 -63t-125 -18q-215 0 -270 152q-16 46 -16 99zM272 877q0 -113 146 -113q47 0 85 7t70.5 39t32.5 118v65 h-190q-144 0 -144 -116z" />
<glyph unicode="&#xab;" horiz-adv-x="1212" d="M76 557l471 469v-252l-219 -217l219 -219v-252zM594 557l471 469v-252l-221 -217l221 -219v-252z" />
<glyph unicode="&#xac;" d="M98 489v195h893v-483h-194v288h-699z" />
<glyph unicode="&#xad;" horiz-adv-x="872" d="M137 471v195h598v-195h-598z" />
<glyph unicode="&#xae;" horiz-adv-x="1765" d="M141 729q0 154 58.5 289t159 235.5t235.5 158.5t289 58t289 -58t235 -158.5t158.5 -235.5t58.5 -289t-58.5 -289t-158.5 -235.5t-235.5 -158.5t-288.5 -58q-154 0 -289 58t-235.5 158.5t-159 235.5t-58.5 289zM289 729q0 -255 172 -429q173 -175 422 -175q248 0 419 175 q173 176 173 429t-173 429q-171 175 -419 175q-249 0 -422 -175q-172 -174 -172 -429zM625 330v800h301q113 0 185 -72q73 -73 73 -166t-46 -147.5t-112 -76.5l178 -338h-166l-164 317h-102v-317h-147zM772 764h135q59 0 95 35t36 86t-35.5 86t-95.5 35h-135v-242z" />
<glyph unicode="&#xaf;" horiz-adv-x="1024" d="M195 1274v149h634v-149h-634z" />
<glyph unicode="&#xb0;" horiz-adv-x="964" d="M125 1124q0 152 105 253q109 106 251 106q147 0 253 -106t106 -253q0 -142 -106 -252q-101 -104 -253 -104q-147 0 -251.5 104.5t-104.5 251.5zM297 1124q0 -80 53 -134t131 -54t132.5 54t54.5 133.5t-54 135.5t-132.5 56t-131.5 -55.5t-53 -135.5z" />
<glyph unicode="&#xb1;" d="M104 0v195h883v-195h-883zM104 647v195h345v344h194v-344h344v-195h-344v-346h-194v346h-345z" />
<glyph unicode="&#xb2;" horiz-adv-x="716" d="M92 584v141l330 381q45 52 45 104.5t-27.5 83.5t-75 31t-81 -23.5t-33.5 -89.5h-158q0 119 76 186.5t191.5 67.5t190.5 -67.5t75 -186.5q0 -63 -25 -105t-70 -95l-247 -287h342v-141h-533z" />
<glyph unicode="&#xb3;" horiz-adv-x="741" d="M92 831h158q2 -59 39 -87.5t87 -28.5t83 32.5t33 90t-32 91.5t-93 34h-23v135h23q59 0 86.5 32.5t27.5 84.5t-32.5 81t-78.5 29t-76 -27.5t-34 -78.5h-156q4 117 80 182t187 65q117 0 190 -69q76 -72 76 -191.5t-102 -171.5q114 -61 114 -198q0 -125 -83 -197 q-76 -66 -193 -66q-185 0 -257 142q-24 49 -24 116z" />
<glyph unicode="&#xb4;" horiz-adv-x="1024" d="M406 1227l153 332h232l-228 -332h-157z" />
<glyph unicode="&#xb6;" horiz-adv-x="1304" d="M78 1051q0 183 124 295q126 112 337 112h575v-1878h-209v1680h-221v-1680h-209v1069q-165 0 -283 121q-114 118 -114 281z" />
<glyph unicode="&#xb7;" horiz-adv-x="569" d="M160 444v250h250v-250h-250z" />
<glyph unicode="&#xb8;" horiz-adv-x="1024" d="M342 -432l143 301h168l-104 -301h-207z" />
<glyph unicode="&#xb9;" horiz-adv-x="567" d="M82 1126v179l178 153h158v-874h-158v698z" />
<glyph unicode="&#xba;" horiz-adv-x="937" d="M125 1043q0 105 19.5 184.5t69.5 130.5q106 108 255 108q150 0 248 -98q59 -61 78.5 -140.5t19.5 -184.5t-19.5 -184t-69.5 -130q-106 -108 -257 -108q-148 0 -246 98q-59 61 -78.5 140t-19.5 184zM295 1044q0 -66 8 -126t51 -103t116 -43t116 43t50 103t7 126t-7 125.5 t-50 102.5t-116 43t-116 -43t-51 -102.5t-8 -125.5z" />
<glyph unicode="&#xbb;" horiz-adv-x="1212" d="M147 86v252l222 219l-222 217v252l474 -469zM666 86v252l219 219l-219 217v252l473 -469z" />
<glyph unicode="&#xbc;" horiz-adv-x="1654" d="M82 1126v179l178 153h158v-874h-158v698zM369 0l686 1458h166l-686 -1458h-166zM983 125v145l301 604h170l-301 -604h186v170h152v-170h82v-145h-82v-125h-152v125h-356z" />
<glyph unicode="&#xbd;" horiz-adv-x="1693" d="M82 1126v179l178 153h158v-874h-158v698zM352 0l686 1458h166l-686 -1458h-166zM1071 0v141l328 381q45 52 45 105t-27.5 83.5t-75 30.5t-81 -23.5t-33.5 -88.5h-156q0 119 75 186.5t190.5 67.5t190.5 -67.5t75 -186.5q0 -63 -25 -105.5t-70 -95.5l-247 -287h342v-141 h-531z" />
<glyph unicode="&#xbe;" horiz-adv-x="1728" d="M92 831h158q2 -59 39 -87.5t87 -28.5t83 32.5t33 90t-32 91.5t-93 34h-23v135h23q59 0 86.5 32.5t27.5 84.5t-32.5 81t-78.5 29t-76 -27.5t-34 -78.5h-156q4 117 80 182t187 65q117 0 190 -69q76 -72 76 -191.5t-102 -171.5q114 -61 114 -198q0 -125 -83 -197 q-76 -66 -193 -66q-185 0 -257 142q-24 49 -24 116zM455 0l686 1458h166l-686 -1458h-166zM1059 125v145l299 604h172l-301 -604h186v170h150v-170h82v-145h-82v-125h-150v125h-356z" />
<glyph unicode="&#xbf;" horiz-adv-x="1046" d="M84 -39q0 119 96 252l160 221q37 53 37 111v61h209v-74q0 -63 -17.5 -108t-54.5 -94l-158 -215q-63 -80 -63 -161t54 -139.5t147.5 -58.5t145.5 60.5t52 144.5h209q0 -171 -119 -283q-115 -110 -290 -110q-173 0 -287 106q-121 114 -121 287zM367 815v223h229v-223h-229z " />
<glyph unicode="&#xc0;" horiz-adv-x="1280" d="M16 0l535 1458h178l535 -1458h-236l-100 293h-576l-100 -293h-236zM354 1932h232l153 -332h-157zM418 481h448l-221 647z" />
<glyph unicode="&#xc1;" horiz-adv-x="1280" d="M16 0l535 1458h178l535 -1458h-236l-100 293h-576l-100 -293h-236zM418 481h448l-221 647zM529 1600l153 332h232l-228 -332h-157z" />
<glyph unicode="&#xc2;" horiz-adv-x="1280" d="M16 0l535 1458h178l535 -1458h-236l-100 293h-576l-100 -293h-236zM283 1600l264 329h176l264 -329h-174l-178 198l-178 -198h-174zM418 481h448l-221 647z" />
<glyph unicode="&#xc3;" horiz-adv-x="1280" d="M16 0l535 1458h178l535 -1458h-236l-100 293h-576l-100 -293h-236zM281 1747q70 70 117 91.5t94 21.5q71 0 155 -49q67 -39 119 -39t115 63l98 -96q-70 -70 -118 -91.5t-94 -21.5q-69 0 -154 47q-71 39 -106.5 39t-60 -9t-67.5 -52zM418 481h448l-221 647z" />
<glyph unicode="&#xc4;" horiz-adv-x="1280" d="M16 0l535 1458h178l535 -1458h-236l-100 293h-576l-100 -293h-236zM320 1610v221h188v-221h-188zM418 481h448l-221 647zM762 1610v221h188v-221h-188z" />
<glyph unicode="&#xc5;" horiz-adv-x="1280" d="M16 0l535 1458h178l535 -1458h-236l-100 293h-576l-100 -293h-236zM379 1792q0 104 76 180t180 76t180 -76t76 -180q0 -106 -76 -180q-77 -76 -180 -76t-180 76q-76 74 -76 180zM418 481h448l-221 647zM504 1792q0 -53 39 -91t92 -38t92 38t39 91t-39 91t-92 38t-92 -38 t-39 -91z" />
<glyph unicode="&#xc6;" horiz-adv-x="1949" d="M10 0l766 1458h1061v-198h-711v-429h607v-198h-607v-434h711v-199h-932v332h-481l-172 -332h-242zM520 520h385v740z" />
<glyph unicode="&#xc7;" horiz-adv-x="1286" d="M137 729q0 254 15 334q31 158 117 243q166 164 381 164t354 -114.5t178 -333.5h-226q-27 111 -99.5 180.5t-194.5 69.5q-132 0 -216 -88q-54 -58 -66 -127q-22 -120 -22 -328t13.5 -283t31 -109t50 -69t88 -58.5t121.5 -23.5q123 0 196.5 70t99.5 180h224 q-35 -212 -180 -334q-136 -114 -340 -114q-228 0 -383 155q-96 96 -125 242q-17 91 -17 344zM455 -432l143 301h168l-104 -301h-207z" />
<glyph unicode="&#xc8;" horiz-adv-x="1234" d="M190 0v1458h932v-198h-710v-426h606v-197h-606v-438h710v-199h-932zM358 1932h232l153 -332h-157z" />
<glyph unicode="&#xc9;" horiz-adv-x="1234" d="M190 0v1458h932v-198h-710v-426h606v-197h-606v-438h710v-199h-932zM531 1600l153 332h232l-228 -332h-157z" />
<glyph unicode="&#xca;" horiz-adv-x="1234" d="M190 0v1458h932v-198h-710v-426h606v-197h-606v-438h710v-199h-932zM285 1600l264 329h176l264 -329h-174l-178 198l-178 -198h-174z" />
<glyph unicode="&#xcb;" horiz-adv-x="1234" d="M190 0v1458h932v-198h-710v-426h606v-197h-606v-438h710v-199h-932zM322 1610v221h188v-221h-188zM764 1610v221h188v-221h-188z" />
<glyph unicode="&#xcc;" horiz-adv-x="602" d="M57 1932h232l153 -332h-157zM190 0v1458h222v-1458h-222z" />
<glyph unicode="&#xcd;" horiz-adv-x="602" d="M166 1600l153 332h232l-228 -332h-157zM190 0v1458h222v-1458h-222z" />
<glyph unicode="&#xce;" horiz-adv-x="602" d="M-59 1600l264 329h176l264 -329h-174l-178 198l-178 -198h-174zM190 0v1458h222v-1458h-222z" />
<glyph unicode="&#xcf;" horiz-adv-x="602" d="M-16 1610v221h188v-221h-188zM190 0v1458h222v-1458h-222zM426 1610v221h188v-221h-188z" />
<glyph unicode="&#xd0;" horiz-adv-x="1400" d="M78 651v170h151v637h512q260 0 412 -194q76 -99 97 -214q14 -84 14 -259t-2 -253.5t-14 -139.5q-21 -112 -93 -201q-158 -197 -420 -197h-506v651h-151zM451 197h264q225 0 301 183q20 47 23 144t3 197t-2 166.5t-8 111.5q-10 73 -55 138q-88 125 -262 125h-264v-441h282 v-170h-282v-454z" />
<glyph unicode="&#xd1;" horiz-adv-x="1476" d="M190 0v1458h203l674 -1024v1024h221v-1458h-203l-673 1026v-1026h-222zM387 1747q70 70 117 91.5t94 21.5q71 0 155 -49q67 -39 119 -39t115 63l98 -96q-70 -70 -118 -91.5t-94 -21.5q-69 0 -154 47q-71 39 -106.5 39t-60 -9t-67.5 -52z" />
<glyph unicode="&#xd2;" horiz-adv-x="1325" d="M137 729q0 254 15 334q31 158 117 243q166 164 393 164q230 0 385 -155q96 -96 123 -241q16 -92 16 -345q0 -252 -14 -333q-28 -154 -115 -242q-164 -166 -395 -166q-228 0 -383 155q-96 96 -125 242q-17 91 -17 344zM358 729q0 -217 12.5 -286.5t30 -103.5t50 -69 t89 -59.5t122.5 -24.5q129 0 217 90q54 58 66 127q20 109 20 326t-12.5 286.5t-30 103.5t-50 69t-89 59.5t-121.5 24.5q-132 0 -218 -90q-54 -58 -66 -127q-20 -109 -20 -326zM383 1932h232l153 -332h-157z" />
<glyph unicode="&#xd3;" horiz-adv-x="1325" d="M137 729q0 254 15 334q31 158 117 243q166 164 393 164q230 0 385 -155q96 -96 123 -241q16 -92 16 -345q0 -252 -14 -333q-28 -154 -115 -242q-164 -166 -395 -166q-228 0 -383 155q-96 96 -125 242q-17 91 -17 344zM358 729q0 -217 12.5 -286.5t30 -103.5t50 -69 t89 -59.5t122.5 -24.5q129 0 217 90q54 58 66 127q20 109 20 326t-12.5 286.5t-30 103.5t-50 69t-89 59.5t-121.5 24.5q-132 0 -218 -90q-54 -58 -66 -127q-20 -109 -20 -326zM556 1600l153 332h232l-228 -332h-157z" />
<glyph unicode="&#xd4;" horiz-adv-x="1325" d="M137 729q0 254 15 334q31 158 117 243q166 164 393 164q230 0 385 -155q96 -96 123 -241q16 -92 16 -345q0 -252 -14 -333q-28 -154 -115 -242q-164 -166 -395 -166q-228 0 -383 155q-96 96 -125 242q-17 91 -17 344zM310 1600l264 329h176l264 -329h-174l-178 198 l-178 -198h-174zM358 729q0 -217 12.5 -286.5t30 -103.5t50 -69t89 -59.5t122.5 -24.5q129 0 217 90q54 58 66 127q20 109 20 326t-12.5 286.5t-30 103.5t-50 69t-89 59.5t-121.5 24.5q-132 0 -218 -90q-54 -58 -66 -127q-20 -109 -20 -326z" />
<glyph unicode="&#xd5;" horiz-adv-x="1325" d="M137 729q0 254 15 334q31 158 117 243q166 164 393 164q230 0 385 -155q96 -96 123 -241q16 -92 16 -345q0 -252 -14 -333q-28 -154 -115 -242q-164 -166 -395 -166q-228 0 -383 155q-96 96 -125 242q-17 91 -17 344zM310 1747q70 70 117 91.5t94 21.5q71 0 155 -49 q67 -39 119 -39t115 63l98 -96q-70 -70 -118 -91.5t-94 -21.5q-69 0 -154 47q-71 39 -106.5 39t-60 -9t-67.5 -52zM358 729q0 -217 12.5 -286.5t30 -103.5t50 -69t89 -59.5t122.5 -24.5q129 0 217 90q54 58 66 127q20 109 20 326t-12.5 286.5t-30 103.5t-50 69t-89 59.5 t-121.5 24.5q-132 0 -218 -90q-54 -58 -66 -127q-20 -109 -20 -326z" />
<glyph unicode="&#xd6;" horiz-adv-x="1325" d="M137 729q0 254 15 334q31 158 117 243q166 164 393 164q230 0 385 -155q96 -96 123 -241q16 -92 16 -345q0 -252 -14 -333q-28 -154 -115 -242q-164 -166 -395 -166q-228 0 -383 155q-96 96 -125 242q-17 91 -17 344zM347 1610v221h188v-221h-188zM358 729 q0 -217 12.5 -286.5t30 -103.5t50 -69t89 -59.5t122.5 -24.5q129 0 217 90q54 58 66 127q20 109 20 326t-12.5 286.5t-30 103.5t-50 69t-89 59.5t-121.5 24.5q-132 0 -218 -90q-54 -58 -66 -127q-20 -109 -20 -326zM789 1610v221h188v-221h-188z" />
<glyph unicode="&#xd7;" d="M117 270l299 299l-299 299l131 131l297 -299l299 299l131 -131l-299 -299l299 -299l-131 -129l-299 297l-297 -297z" />
<glyph unicode="&#xd8;" horiz-adv-x="1335" d="M137 729q0 254 15 334q31 158 127 252q155 155 393 155q127 0 235 -55l62 133h170l-107 -221q4 -4 7 -6t8 -6q96 -96 123 -241q16 -92 16 -345q0 -252 -14 -333q-28 -154 -115 -242q-164 -166 -395 -166q-136 0 -244 55l-64 -133h-168l105 221q-65 65 -94 124.5 t-43 129.5q-17 91 -17 344zM360 796.5q0 -149.5 2.5 -211t6.5 -107.5q7 -82 32 -138l424 887q-74 45 -151 45q-142 0 -228 -90q-54 -58 -66 -127q-20 -109 -20 -258.5zM500 231q72 -45 150 -45q141 0 229 90q54 58 66.5 127.5t16 142t3.5 169t-1 157t-6 106.5 q-11 91 -34 140z" />
<glyph unicode="&#xd9;" horiz-adv-x="1382" d="M168 492v966h221v-956q0 -147 82 -231.5t219 -84.5t220 84t83 232v956h221v-966q0 -226 -150 -365t-374 -139q-226 0 -372 139q-150 142 -150 365zM413 1932h232l153 -332h-157z" />
<glyph unicode="&#xda;" horiz-adv-x="1382" d="M168 492v966h221v-956q0 -147 82 -231.5t219 -84.5t220 84t83 232v956h221v-966q0 -226 -150 -365t-374 -139q-226 0 -372 139q-150 142 -150 365zM586 1600l153 332h232l-228 -332h-157z" />
<glyph unicode="&#xdb;" horiz-adv-x="1382" d="M168 492v966h221v-956q0 -147 82 -231.5t219 -84.5t220 84t83 232v956h221v-966q0 -226 -150 -365t-374 -139q-226 0 -372 139q-150 142 -150 365zM340 1600l264 329h176l264 -329h-174l-178 198l-178 -198h-174z" />
<glyph unicode="&#xdc;" horiz-adv-x="1382" d="M168 492v966h221v-956q0 -147 82 -231.5t219 -84.5t220 84t83 232v956h221v-966q0 -226 -150 -365t-374 -139q-226 0 -372 139q-150 142 -150 365zM377 1610v221h188v-221h-188zM819 1610v221h188v-221h-188z" />
<glyph unicode="&#xdd;" horiz-adv-x="1114" d="M10 1458h242l305 -641l305 641h242l-436 -858v-600h-222v600zM451 1600l153 332h232l-228 -332h-157z" />
<glyph unicode="&#xde;" horiz-adv-x="1304" d="M190 0v1458h222v-280h331q208 0 341 -126q126 -121 126 -318q0 -95 -32.5 -175t-93.5 -139q-129 -125 -341 -125h-331v-295h-222zM412 494h317q117 0 187.5 62t70.5 179t-70.5 180.5t-187.5 63.5h-317v-485z" />
<glyph unicode="&#xdf;" horiz-adv-x="1157" d="M166 0v1069q0 197 122 303q115 101 316 101q187 0 300 -84q120 -90 120 -256.5t-127 -247.5q66 -35 97.5 -86t31.5 -150v-338q0 -151 -84 -231t-233 -80h-109v178h66q63 0 106 34t43 118v319q0 74 -38 111t-105 37h-72v166h64q66 0 108.5 38.5t42.5 114.5q0 72 -51 122 t-170 50t-168 -62.5t-49 -168.5v-1057h-211z" />
<glyph unicode="&#xe0;" horiz-adv-x="1085" d="M88 302q0 134 89 218t269 84h275v74q0 98 -52.5 146t-156.5 48t-153.5 -22.5t-92.5 -77.5l-137 129q74 86 159 118t214 32q428 0 428 -357v-694h-205v94q-57 -57 -118.5 -81.5t-158.5 -24.5q-184 0 -278 94q-82 86 -82 220zM247 1559h232l153 -332h-157zM291 309 q0 -147 190 -147q59 0 106.5 9t90.5 52t43 152v84h-244q-92 0 -139 -39t-47 -111z" />
<glyph unicode="&#xe1;" horiz-adv-x="1085" d="M88 302q0 134 89 218t269 84h275v74q0 98 -52.5 146t-156.5 48t-153.5 -22.5t-92.5 -77.5l-137 129q74 86 159 118t214 32q428 0 428 -357v-694h-205v94q-57 -57 -118.5 -81.5t-158.5 -24.5q-184 0 -278 94q-82 86 -82 220zM291 309q0 -147 190 -147q59 0 106.5 9 t90.5 52t43 152v84h-244q-92 0 -139 -39t-47 -111zM420 1227l153 332h232l-228 -332h-157z" />
<glyph unicode="&#xe2;" horiz-adv-x="1085" d="M88 302q0 134 89 218t269 84h275v74q0 98 -52.5 146t-156.5 48t-153.5 -22.5t-92.5 -77.5l-137 129q74 86 159 118t214 32q428 0 428 -357v-694h-205v94q-57 -57 -118.5 -81.5t-158.5 -24.5q-184 0 -278 94q-82 86 -82 220zM174 1227l264 329h176l264 -329h-174l-178 198 l-178 -198h-174zM291 309q0 -147 190 -147q59 0 106.5 9t90.5 52t43 152v84h-244q-92 0 -139 -39t-47 -111z" />
<glyph unicode="&#xe3;" horiz-adv-x="1085" d="M88 302q0 134 89 218t269 84h275v74q0 98 -52.5 146t-156.5 48t-153.5 -22.5t-92.5 -77.5l-137 129q74 86 159 118t214 32q428 0 428 -357v-694h-205v94q-57 -57 -118.5 -81.5t-158.5 -24.5q-184 0 -278 94q-82 86 -82 220zM174 1374q70 70 117 91.5t94 21.5 q71 0 155 -49q67 -39 119 -39t115 63l98 -96q-70 -70 -118 -91.5t-94 -21.5q-69 0 -154 47q-71 39 -106.5 39t-60 -9t-67.5 -52zM291 309q0 -147 190 -147q59 0 106.5 9t90.5 52t43 152v84h-244q-92 0 -139 -39t-47 -111z" />
<glyph unicode="&#xe4;" horiz-adv-x="1085" d="M88 302q0 134 89 218t269 84h275v74q0 98 -52.5 146t-156.5 48t-153.5 -22.5t-92.5 -77.5l-137 129q74 86 159 118t214 32q428 0 428 -357v-694h-205v94q-57 -57 -118.5 -81.5t-158.5 -24.5q-184 0 -278 94q-82 86 -82 220zM211 1237v221h188v-221h-188zM291 309 q0 -147 190 -147q59 0 106.5 9t90.5 52t43 152v84h-244q-92 0 -139 -39t-47 -111zM653 1237v221h188v-221h-188z" />
<glyph unicode="&#xe5;" horiz-adv-x="1085" d="M88 302q0 134 89 218t269 84h275v74q0 98 -52.5 146t-156.5 48t-153.5 -22.5t-92.5 -77.5l-137 129q74 86 159 118t214 32q428 0 428 -357v-694h-205v94q-57 -57 -118.5 -81.5t-158.5 -24.5q-184 0 -278 94q-82 86 -82 220zM270 1436q0 104 76 180t180 76t180 -76 t76 -180q0 -106 -76 -180q-77 -76 -180 -76t-180 76q-76 74 -76 180zM291 309q0 -147 190 -147q59 0 106.5 9t90.5 52t43 152v84h-244q-92 0 -139 -39t-47 -111zM395 1436q0 -53 39 -91t92 -38t92 38t39 91t-39 91t-92 38t-92 -38t-39 -91z" />
<glyph unicode="&#xe6;" horiz-adv-x="1714" d="M88 305q0 131 89 215t269 84h275v74q0 98 -52.5 146t-156.5 48t-153.5 -22.5t-92.5 -77.5l-137 129q74 86 159 118t214 32q256 0 352 -138q113 137 307 138q206 0 325 -139q116 -136 116 -361v-92h-674q0 -135 67.5 -213t196.5 -78q88 0 142.5 25.5t109.5 80.5l133 -124 q-85 -85 -149 -113q-109 -49 -240 -49q-248 0 -367 162q-78 -96 -165 -129t-196 -33q-284 0 -352 194q-20 58 -20 123zM291 309q0 -147 190 -147q59 0 106.5 9t90.5 52t43 152v84h-244q-92 0 -139 -39t-47 -111zM928 604h467q-4 92 -28 146t-78 90.5t-128 36.5t-127 -36 t-74 -83q-28 -67 -32 -154z" />
<glyph unicode="&#xe7;" horiz-adv-x="999" d="M113 520q0 270 145 410q124 121 317 121q109 0 189 -34t154 -112l-144 -139q-49 53 -93 75.5t-106 22.5q-123 0 -192 -92q-35 -43 -48 -101.5t-13 -150.5q0 -179 61 -254q70 -92 192 -92q61 0 105.5 22.5t93.5 75.5l144 -137q-74 -78 -154 -112.5t-178.5 -34.5t-181 28.5 t-146.5 91.5q-145 143 -145 412zM342 -432l143 301h168l-104 -301h-207z" />
<glyph unicode="&#xe8;" horiz-adv-x="1103" d="M113 507.5q0 266.5 119.5 405t320.5 138.5q204 0 325 -139q115 -134 115 -361v-92h-674q0 -135 68 -213t197 -78q88 0 142 25.5t110 80.5l133 -124q-85 -85 -149 -113q-109 -49 -223.5 -49t-200 27.5t-148.5 90.5q-135 135 -135 401.5zM280 1559h232l153 -332h-157z M319 604h467q-4 90 -28.5 145t-77.5 91.5t-127 36.5t-128 -36t-74.5 -83.5t-24.5 -77t-7 -76.5z" />
<glyph unicode="&#xe9;" horiz-adv-x="1103" d="M113 507.5q0 266.5 119.5 405t320.5 138.5q204 0 325 -139q115 -134 115 -361v-92h-674q0 -135 68 -213t197 -78q88 0 142 25.5t110 80.5l133 -124q-85 -85 -149 -113q-109 -49 -223.5 -49t-200 27.5t-148.5 90.5q-135 135 -135 401.5zM319 604h467q-4 90 -28.5 145 t-77.5 91.5t-127 36.5t-128 -36t-74.5 -83.5t-24.5 -77t-7 -76.5zM453 1227l153 332h232l-228 -332h-157z" />
<glyph unicode="&#xea;" horiz-adv-x="1103" d="M113 507.5q0 266.5 119.5 405t320.5 138.5q204 0 325 -139q115 -134 115 -361v-92h-674q0 -135 68 -213t197 -78q88 0 142 25.5t110 80.5l133 -124q-85 -85 -149 -113q-109 -49 -223.5 -49t-200 27.5t-148.5 90.5q-135 135 -135 401.5zM207 1227l264 329h176l264 -329 h-174l-178 198l-178 -198h-174zM319 604h467q-4 90 -28.5 145t-77.5 91.5t-127 36.5t-128 -36t-74.5 -83.5t-24.5 -77t-7 -76.5z" />
<glyph unicode="&#xeb;" horiz-adv-x="1103" d="M113 507.5q0 266.5 119.5 405t320.5 138.5q204 0 325 -139q115 -134 115 -361v-92h-674q0 -135 68 -213t197 -78q88 0 142 25.5t110 80.5l133 -124q-85 -85 -149 -113q-109 -49 -223.5 -49t-200 27.5t-148.5 90.5q-135 135 -135 401.5zM244 1237v221h188v-221h-188z M319 604h467q-4 90 -28.5 145t-77.5 91.5t-127 36.5t-128 -36t-74.5 -83.5t-24.5 -77t-7 -76.5zM686 1237v221h188v-221h-188z" />
<glyph unicode="&#xec;" horiz-adv-x="540" d="M32 1559h232l153 -332h-157zM166 0v1038h209v-1038h-209z" />
<glyph unicode="&#xed;" horiz-adv-x="540" d="M138 1227l153 332h232l-228 -332h-157zM166 0v1038h209v-1038h-209z" />
<glyph unicode="&#xee;" horiz-adv-x="540" d="M-84 1227l264 329h176l264 -329h-174l-178 198l-178 -198h-174zM166 0v1038h209v-1038h-209z" />
<glyph unicode="&#xef;" horiz-adv-x="540" d="M-47 1237v221h188v-221h-188zM166 0v1038h209v-1038h-209zM395 1237v221h188v-221h-188z" />
<glyph unicode="&#xf0;" horiz-adv-x="1099" d="M125 510q0 129 23.5 227.5t100.5 176.5q105 108 288 108q41 0 77 -10l-92 166h-237v147h159l-79 143h221l80 -143h178v-147h-103l105 -193q80 -148 99.5 -219.5t24.5 -127.5t5 -156.5t-23.5 -199t-97.5 -173.5q-112 -121 -305 -121t-303 121q-74 76 -97.5 174t-23.5 227z M334 510q0 -82 10 -155.5t63 -127t142 -53.5q90 0 143 53t63.5 127t10.5 156t-10.5 155.5t-48.5 111.5q-69 69 -157.5 69t-142 -53.5t-63.5 -127t-10 -155.5z" />
<glyph unicode="&#xf1;" horiz-adv-x="1163" d="M166 0v1038h205v-104q105 117 276 117q157 0 256 -95q105 -105 105 -292v-664h-209v633q0 121 -60.5 176t-148.5 55t-151.5 -56t-63.5 -175v-633h-209zM236 1374q70 70 117 91.5t94 21.5q71 0 155 -49q67 -39 119 -39t115 63l98 -96q-70 -70 -118 -91.5t-94 -21.5 q-69 0 -154 47q-71 39 -106.5 39t-60 -9t-67.5 -52z" />
<glyph unicode="&#xf2;" horiz-adv-x="1099" d="M117 519q0 132 24.5 231.5t86.5 165.5q130 135 321 135q193 0 311 -123q74 -78 98.5 -177.5t24.5 -231.5t-24.5 -231.5t-86.5 -164.5q-130 -135 -323 -135t-309 123q-74 78 -98.5 177t-24.5 231zM256 1559h232l153 -332h-157zM326 520q0 -86 12 -161.5t66 -129.5 t145.5 -54.5t145.5 54t66.5 130t12.5 161.5t-12 162t-65.5 129t-146.5 53t-146.5 -53t-65.5 -129t-12 -162z" />
<glyph unicode="&#xf3;" horiz-adv-x="1099" d="M117 519q0 132 24.5 231.5t86.5 165.5q130 135 321 135q193 0 311 -123q74 -78 98.5 -177.5t24.5 -231.5t-24.5 -231.5t-86.5 -164.5q-130 -135 -323 -135t-309 123q-74 78 -98.5 177t-24.5 231zM326 520q0 -86 12 -161.5t66 -129.5t145.5 -54.5t145.5 54t66.5 130 t12.5 161.5t-12 162t-65.5 129t-146.5 53t-146.5 -53t-65.5 -129t-12 -162zM443 1227l153 332h232l-228 -332h-157z" />
<glyph unicode="&#xf4;" horiz-adv-x="1099" d="M117 519q0 132 24.5 231.5t86.5 165.5q130 135 321 135q193 0 311 -123q74 -78 98.5 -177.5t24.5 -231.5t-24.5 -231.5t-86.5 -164.5q-130 -135 -323 -135t-309 123q-74 78 -98.5 177t-24.5 231zM197 1227l264 329h176l264 -329h-174l-178 198l-178 -198h-174zM326 520 q0 -86 12 -161.5t66 -129.5t145.5 -54.5t145.5 54t66.5 130t12.5 161.5t-12 162t-65.5 129t-146.5 53t-146.5 -53t-65.5 -129t-12 -162z" />
<glyph unicode="&#xf5;" horiz-adv-x="1099" d="M117 519q0 132 24.5 231.5t86.5 165.5q130 135 321 135q193 0 311 -123q74 -78 98.5 -177.5t24.5 -231.5t-24.5 -231.5t-86.5 -164.5q-130 -135 -323 -135t-309 123q-74 78 -98.5 177t-24.5 231zM197 1374q70 70 117 91.5t94 21.5q71 0 155 -49q67 -39 119 -39t115 63 l98 -96q-70 -70 -118 -91.5t-94 -21.5q-69 0 -154 47q-71 39 -106.5 39t-60 -9t-67.5 -52zM326 520q0 -86 12 -161.5t66 -129.5t145.5 -54.5t145.5 54t66.5 130t12.5 161.5t-12 162t-65.5 129t-146.5 53t-146.5 -53t-65.5 -129t-12 -162z" />
<glyph unicode="&#xf6;" horiz-adv-x="1099" d="M117 519q0 132 24.5 231.5t86.5 165.5q130 135 321 135q193 0 311 -123q74 -78 98.5 -177.5t24.5 -231.5t-24.5 -231.5t-86.5 -164.5q-130 -135 -323 -135t-309 123q-74 78 -98.5 177t-24.5 231zM234 1237v221h188v-221h-188zM326 520q0 -86 12 -161.5t66 -129.5 t145.5 -54.5t145.5 54t66.5 130t12.5 161.5t-12 162t-65.5 129t-146.5 53t-146.5 -53t-65.5 -129t-12 -162zM676 1237v221h188v-221h-188z" />
<glyph unicode="&#xf7;" d="M98 471v195h893v-195h-893zM434 68v223h223v-223h-223zM434 848v223h223v-223h-223z" />
<glyph unicode="&#xf8;" horiz-adv-x="1099" d="M117 520q0 131 24.5 230.5t98.5 177.5q118 123 314 123q113 0 210 -52l76 129h141l-121 -200q74 -78 98.5 -177.5t24.5 -231.5t-24.5 -231.5t-86.5 -164.5q-130 -135 -323 -135q-118 0 -213 51l-76 -129h-141l119 203q-74 78 -97.5 177t-23.5 230zM326 532 q0 -164 30 -235l316 532q-53 35 -134 35t-134.5 -53t-65.5 -129t-12 -150zM428 211q53 -37 133 -37t134 54.5t66.5 130t12.5 149.5q0 166 -31 235z" />
<glyph unicode="&#xf9;" horiz-adv-x="1163" d="M156 375v663h209v-632q0 -121 60 -176.5t148 -55.5q149 0 198 128q17 44 17 104v632h209v-1038h-204v104q-104 -116 -277 -116q-158 0 -256 94q-104 104 -104 293zM296 1559h232l153 -332h-157z" />
<glyph unicode="&#xfa;" horiz-adv-x="1163" d="M156 375v663h209v-632q0 -121 60 -176.5t148 -55.5q149 0 198 128q17 44 17 104v632h209v-1038h-204v104q-104 -116 -277 -116q-158 0 -256 94q-104 104 -104 293zM469 1227l153 332h232l-228 -332h-157z" />
<glyph unicode="&#xfb;" horiz-adv-x="1163" d="M156 375v663h209v-632q0 -121 60 -176.5t148 -55.5q149 0 198 128q17 44 17 104v632h209v-1038h-204v104q-104 -116 -277 -116q-158 0 -256 94q-104 104 -104 293zM223 1227l264 329h176l264 -329h-174l-178 198l-178 -198h-174z" />
<glyph unicode="&#xfc;" horiz-adv-x="1163" d="M156 375v663h209v-632q0 -121 60 -176.5t148 -55.5q149 0 198 128q17 44 17 104v632h209v-1038h-204v104q-104 -116 -277 -116q-158 0 -256 94q-104 104 -104 293zM260 1237v221h188v-221h-188zM702 1237v221h188v-221h-188z" />
<glyph unicode="&#xfd;" horiz-adv-x="958" d="M16 1038h222l247 -731l242 731h223l-458 -1245q-54 -153 -174 -189q-56 -16 -115 -16h-84v189h53q66 0 96.5 23.5t53.5 86.5l57 162zM375 1227l153 332h232l-228 -332h-157z" />
<glyph unicode="&#xfe;" horiz-adv-x="1134" d="M166 -420v1878h209v-524q57 68 122.5 92.5t146.5 24.5q290 0 354 -291q18 -86 18 -240t-16 -226q-30 -143 -101 -214q-92 -92 -252 -92q-84 0 -149.5 25.5t-122.5 92.5v-526h-209zM375 520q0 -165 30.5 -228t72.5 -90.5t113 -27.5t114 27.5t65 76.5q37 78 37 242 q0 166 -29.5 227.5t-72.5 89t-114 27.5t-113 -27.5t-66 -74.5q-37 -75 -37 -242z" />
<glyph unicode="&#xff;" horiz-adv-x="958" d="M16 1038h222l247 -731l242 731h223l-458 -1245q-54 -153 -174 -189q-56 -16 -115 -16h-84v189h53q66 0 96.5 23.5t53.5 86.5l57 162zM166 1237v221h188v-221h-188zM608 1237v221h188v-221h-188z" />
<glyph unicode="&#x152;" horiz-adv-x="2000" d="M137 729q0 256 15 337q31 159 117 244t179 122.5t209 37.5q196 0 308 -131v119h921v-196h-700v-431h596v-192h-596v-442h702v-197h-923v119q-59 -70 -142.5 -100.5t-182.5 -30.5q-212 0 -361 151q-97 97 -125 243q-17 92 -17 347zM360 729q0 -217 12.5 -286.5t30 -103.5 t50 -69t88 -59.5t121.5 -24.5q129 0 217 90q54 58 66 127q20 109 20 326t-12.5 286.5t-30 103.5t-50 69t-89 59.5t-121.5 24.5q-130 0 -216 -90q-54 -58 -66 -127q-20 -109 -20 -326z" />
<glyph unicode="&#x153;" horiz-adv-x="1765" d="M117 519q0 132 24.5 231.5t86.5 165.5q130 135 321 135q115 0 201 -44t135 -122q109 166 327 166q206 0 325 -139q116 -136 116 -361v-92h-674q0 -135 67.5 -213t196.5 -78q88 0 142.5 25.5t109.5 80.5l133 -124q-87 -87 -149 -114q-107 -48 -238 -48q-245 0 -358 164 q-49 -76 -135 -120t-196 -44q-196 0 -312 123q-74 78 -98.5 177t-24.5 231zM326 520q0 -86 12 -161.5t66 -129.5t145.5 -54.5t145.5 54t66.5 130t12.5 161.5t-12 162t-65.5 129t-146.5 53t-146.5 -53t-65.5 -129t-12 -162zM979 604h467q-4 95 -28 147.5t-78 89t-128 36.5 t-127 -36t-73 -83q-29 -70 -33 -154z" />
<glyph unicode="&#x178;" horiz-adv-x="1114" d="M10 1458h242l305 -641l305 641h242l-436 -858v-600h-222v600zM242 1610v221h188v-221h-188zM684 1610v221h188v-221h-188z" />
<glyph unicode="&#x2c6;" horiz-adv-x="1024" d="M160 1227l264 329h176l264 -329h-174l-178 198l-178 -198h-174z" />
<glyph unicode="&#x2dc;" horiz-adv-x="1024" d="M160 1374q70 70 117 91.5t94 21.5q71 0 155 -49q67 -39 119 -39t115 63l98 -96q-70 -70 -118 -91.5t-94 -21.5q-69 0 -154 47q-71 39 -106.5 39t-60 -9t-67.5 -52z" />
<glyph unicode="&#x2000;" horiz-adv-x="1024" />
<glyph unicode="&#x2001;" horiz-adv-x="2048" />
<glyph unicode="&#x2002;" horiz-adv-x="1024" />
<glyph unicode="&#x2003;" horiz-adv-x="2048" />
<glyph unicode="&#x2004;" horiz-adv-x="682" />
<glyph unicode="&#x2005;" horiz-adv-x="512" />
<glyph unicode="&#x2006;" horiz-adv-x="341" />
<glyph unicode="&#x2007;" horiz-adv-x="341" />
<glyph unicode="&#x2008;" horiz-adv-x="256" />
<glyph unicode="&#x2009;" horiz-adv-x="409" />
<glyph unicode="&#x200a;" horiz-adv-x="113" />
<glyph unicode="&#x2010;" horiz-adv-x="872" d="M137 471v195h598v-195h-598z" />
<glyph unicode="&#x2011;" horiz-adv-x="872" d="M137 471v195h598v-195h-598z" />
<glyph unicode="&#x2012;" horiz-adv-x="872" d="M137 471v195h598v-195h-598z" />
<glyph unicode="&#x2013;" d="M104 471v195h883v-195h-883z" />
<glyph unicode="&#x2014;" horiz-adv-x="1990" d="M137 473v199h1716v-199h-1716z" />
<glyph unicode="&#x2018;" horiz-adv-x="548" d="M160 1245v213l229 191v-404h-229z" />
<glyph unicode="&#x2019;" horiz-adv-x="548" d="M160 1057v401h229v-215z" />
<glyph unicode="&#x201a;" horiz-adv-x="546" d="M160 -188v403h229v-215z" />
<glyph unicode="&#x201c;" horiz-adv-x="940" d="M160 1245v213l229 191v-404h-229zM551 1245v213l229 191v-404h-229z" />
<glyph unicode="&#x201d;" horiz-adv-x="940" d="M160 1057v401h229v-215zM551 1057v401h229v-215z" />
<glyph unicode="&#x201e;" horiz-adv-x="942" d="M160 -188v403h229v-215zM551 -188v403h229v-215z" />
<glyph unicode="&#x2022;" horiz-adv-x="1048" d="M190 684q0 135 99 236q97 98 235 98q139 0 236 -98q98 -100 98 -236t-98 -236q-97 -98 -236 -98q-138 0 -235 98q-99 101 -99 236z" />
<glyph unicode="&#x2026;" horiz-adv-x="1644" d="M160 0v240h239v-240h-239zM702 0v240h240v-240h-240zM1245 0v240h240v-240h-240z" />
<glyph unicode="&#x202f;" horiz-adv-x="409" />
<glyph unicode="&#x2039;" horiz-adv-x="694" d="M76 557l471 469v-252l-219 -217l219 -219v-252z" />
<glyph unicode="&#x203a;" horiz-adv-x="694" d="M147 86v252l222 219l-222 217v252l474 -469z" />
<glyph unicode="&#x205f;" horiz-adv-x="512" />
<glyph unicode="&#x2122;" horiz-adv-x="1808" d="M84 1317v141h625v-141h-236v-733h-156v733h-233zM854 584v874h158l256 -497l258 497h157v-874h-157v571l-185 -367h-145l-184 367v-571h-158z" />
<glyph unicode="&#xe000;" horiz-adv-x="1034" d="M0 0v1034h1034v-1034h-1034z" />
</font>
</defs>
</svg>
